Files
2023-01-17 00:45:18 -05:00

376 lines
13 KiB
Plaintext

//TJADB Project
TITLE:START DASH SENSATION
TITLEJA:START DASH SENSATION
SUBTITLE:--AIKATSU☆STARS!/Aikatsu!
SUBTITLEJA:「アイカツ!」より
BPM:170
WAVE:START DASH SENSATION.ogg
OFFSET:-2.965
DEMOSTART:60.137
COURSE:Oni
LEVEL:5
BALLOON:16,14,14
SCOREINIT:780
SCOREDIFF:220
#START
100000100000200000200000000000100000100000200000,
000000200000000000200000000000000000000000000000,
100000100000200000200000000000100000100000200000,
000000200000000000200000000000100000100000000000,
700000000000000000000000000000000000000000000000,
000000000000800000000000300000300000000000000000,
#GOGOSTART
#BPMCHANGE 170.89
100000100000200000100000000000100000200000100000,
#BPMCHANGE 171.28
000000100000200000000000100000100000200000000000,
#BPMCHANGE 167.87
#SCROLL 1.01
100000100000200000100000000000100000200000100000,
#BPMCHANGE 170.43
#SCROLL 0.99
000000100000200000000000100000100000200000200000,
#BPMCHANGE 170.05
100000100000200000100000000000100000200000100000,
#BPMCHANGE 171.91
#SCROLL 0.98
000000100000200000000000100000100000200000000000,
#BPMCHANGE 167.67
#SCROLL 1.01
100000100000200000300000000000300000000000700000,
#BPMCHANGE 171.16
#SCROLL 0.99
000000000000000000000000000000000000800000000000,
#GOGOEND
#BPMCHANGE 169.4
#SCROLL 1
100000000000200000000000100000100000200000100000,
000000100000200000200000100000000000200000000000,
#BPMCHANGE 170.03
#SCROLL 0.99
100000000000200000100000100000000000200000100000,
100000000000200000100000100000200000200000000000,
#BPMCHANGE 169.23
#SCROLL 1
100000000000200000000000100000100000200000100000,
#BPMCHANGE 170.11
#SCROLL 0.99
000000100000200000200000100000000000200000000000,
100000000000200000100000100000000000200000100000,
100000000000200000100000100000200000200000000000,
100000000000100000200000100000100000200000100000,
000000100000200000000000100000100000200000000000,
100000100000200000000000100000100000200000500000,
000000000000000000000008000000000000000000000000,
#BPMCHANGE 170
#SCROLL 1
100000000000100000200000100000200000100000100000,
000000100000200000000000100000100000200000000000,
#BPMCHANGE 169.57
100000100000200000000000100000100000200000500000,
#BPMCHANGE 170.43
#SCROLL 0.99
000000000000000008000000100000100000100100100000,
#BPMCHANGE 170
100000200000100000200000100000200000100000200000,
100000200000100000200000100000200000200000000000,
100000200000100000200000100000100000000000100000,
000000000000200000100100100000100000200000000000,
100000100000200000200000100000100000200000200000,
100000100000200000200000100000100000200000200000,
500000000000000000000000000000000000000000000008,
000000000000100000200000100000200000100000200000,
100000000000100000000000100000100000100000200000,
#BPMCHANGE 170.57
000000100000100000100000100000100000100000300000,
#BPMCHANGE 169.43
#SCROLL 1
000000300000400000000000000000000000000000000000,
#GOGOSTART
#BPMCHANGE 170.28
#SCROLL 0.99
100000100000200000200000000000100000200000100000,
200000100000200000100000000000200000200000000000,
#BPMCHANGE 169.45
#SCROLL 1
100000100000200000200000000000100000200000300000,
#BPMCHANGE 170
#SCROLL 0.99
000000300000000000300000000000300000300000000000,
100000000000200000000000100000100000200000100000,
000000100000200000000000100000100000200000000000,
500000000000000000000000000000000000000000000000,
000008000000100100100000300000000000300000000000,
100000100000200000200000000000100000200000100000,
200000100000200000100000000000200000200000000000,
#BPMCHANGE 171.15
100000100000200000100000000000100000200000300000,
000000300000000000300000000000300000300000000000,
#BPMCHANGE 168.92
#SCROLL 1
400000000000100000100000100000200000100000200000,
#BPMCHANGE 170.4
#SCROLL 0.99
100000200000100000000000300000000000300000000000,
#BPMCHANGE 168.41
#SCROLL 1
400000000000100000100000100000200000100000200000,
#BPMCHANGE 170
100000200000100000200000300000000000300000000000,
400000000000100000100000100000200000100000200000,
100000200000100000200000100000100000100100100000,
#BPMCHANGE 170
#SCROLL 0.99
700000000000000000000000000000000000000000000008,
#GOGOEND
#END
COURSE:Hard
LEVEL:4
BALLOON:9,9,3,3,2,13,12,3
SCOREINIT:1020
SCOREDIFF:395
#START
100000100000200000200000000000100000100000200000,
000000200000000000200000000000200000000000000000,
100000100000200000200000000000100000100000200000,
000000200000000000200000000000100000500000000000,
000000000000000000000000000000000000000000000000,
000000000000000000800000000000000000000000000000,
#GOGOSTART
100000100000100000200000000000200000000000500000,
000000000000000000000000000000800000000000000000,
100000100000100000200000000000200000000000700000,
000000000000000000000000000000800000000000000000,
100000100000100000200000000000200000000000500000,
000000000000000000000000000000800000000000000000,
100000100000100000200000000000200000000000700000,
000000000000000000000000000000800000000000000000,
#GOGOEND
000000000000000000000000100000100000100000100000,
000000000000100000000000100000000000100000000000,
100000000000000000100000100000000000000000100000,
100000000000000000100000100000000000000000000000,
000000000000000000000000200000200000200000200000,
000000000000200000000000200000000000200000000000,
200000000000000000200000200000000000000000200000,
200000000000000000200000200000000000000000000000,
000000000000100000000000100000100000000000100000,
000000000000100000000000100000000000100000000000,
700000000000000000800000000000100000100000500000,
000000000000000000800000000000000000000000000000,
000000000000100000000000100000000000100000100000,
000000000000100000000000100000000000100000000000,
700000000000000000800000000000100000100000500000,
000000000000000000000000000000800000000000000000,
100000200000100000200000100000000000100000200000,
000000200000000000200000000000000000000000000000,
100000200000100000200000100000200000000000700000,
000000000800000000000000100000100000100000000000,
100000000000000000000000100000100000100000000000,
100000000000000000000000100000100000100000000000,
500000000000000000000000000000000000000000800000,
000000000000100000000000100000000000100000000000,
900000000000000000000000000000000000000000000000,
000000000000000000000000000000000000000000000000,
000000000000000000000000000000000000800000000000,
#GOGOSTART
100000100000200000200000000000100000100000200000,
000000200000000000200000000000200000200000000000,
100000100000200000200000000000100000100000200000,
000000200000000000200000000000200000200000000000,
100000000000100000000000100000200000000000200000,
000000000000200000000000200000000000200000000000,
700000000000000000000000000000000000000000000000,
000000800000000000000000100000000000100000000000,
100000100000200000200000000000100000100000200000,
000000200000000000200000000000200000200000000000,
100000100000200000200000000000100000100000200000,
000000200000000000200000000000200000200000000000,
100000000000100000200000100000200000100000200000,
100000200000100000200000500000800000000000000000,
100000000000100000200000100000200000100000200000,
100000200000100000200000500000800000000000000000,
100000000000100000200000100000200000100000200000,
100000200000100000200000100000200000100000000000,
900000000000000000000000000000000000000000000008,
#GOGOEND
#END
COURSE:Normal
LEVEL:3
BALLOON:7,7,11,11,3,8,10,5
SCOREINIT:1340
SCOREDIFF:560
#START
100000000000000000000000000000000000000000100000,
000000000000000000000000000000000000000000000000,
100000000000000000000000000000000000600000000000,
000000000000000000000000000000000000000000000000,
000000000000000000000000000000000000000000000000,
000000000000000000800000000000000000000000000000,
#GOGOSTART
100000000000100000000000100000000000000000500000,
000000000000000000000000000000800000000000000000,
100000000000100000000000100000000000000000700000,
000000000000000000000000000000800000000000000000,
100000000000100000000000100000000000000000500000,
000000000000000000000000000000800000000000000000,
100000000000100000000000100000000000000000700000,
000000000000000000000000000000800000000000000000,
#GOGOEND
100000000000000000000000100000000000100000000000,
100000000000100000000000100000000000000000000000,
100000000000000000000000100000000000000000000000,
100000000000000000000000000000000000000000000000,
100000000000000000000000100000000000100000000000,
100000000000100000000000100000000000000000000000,
200000000000000000000000200000000000000000000000,
200000000000000000000000000000000000000000000000,
100000000000100000000000100000000000000000100000,
000000000000100000000000100000000000100000000000,
700000000000000000000000000000000000000000000000,
000000000000000000000000000000800000000000000000,
100000000000100000000000100000000000000000100000,
000000000000100000000000100000000000100000000000,
700000000000000000000000000000000000000000000000,
000000000000000000000000000000800000000000000000,
100000000000100000000000100000000000000000000000,
200000000000200000000000200000000000000000000000,
100000000000100000000000100000000000000000700000,
000000008000000000000000100000000000100000000000,
100000000000000000000000100000000000100000000000,
100000000000000000000000100000000000100000000000,
500000000000000000000000000000000000000000800000,
000000000000100000000000100000000000100000000000,
900000000000000000000000000000000000000000000000,
000000000000000000000000000000000000000000000000,
000000000000000000000000000000000000800000000000,
#GOGOSTART
100000000000100000000000100000000000000000100000,
000000100000000000100000000000000000000000000000,
100000000000100000000000100000000000000000500000,
000000000000000000000000000000800000000000000000,
100000000000100000000000100000000000000000100000,
000000000000100000000000100000000000000000000000,
700000000000000000000000000000000000000000000000,
000000000000000000000000000000800000000000000000,
100000000000100000000000100000000000000000100000,
000000100000000000100000000000000000000000000000,
100000000000100000000000100000000000000000500000,
000000000000000000000000000000800000000000000000,
100000000000100000000000100000000000100000000000,
100000000000100000000000100000000000000000000000,
100000000000100000000000100000000000100000000000,
200000000000200000000000200000000000000000000000,
100000000000100000000000100000000000100000000000,
100000000000100000000000100000000000100000000000,
900000000000000000000000000000000000000000000008,
#GOGOEND
#END
COURSE:Easy
LEVEL:2
BALLOON:4,4,6,6,5,6,5
SCOREINIT:1160
SCOREDIFF:688
#START
100000000000000000000000000000000000000000100000,
000000000000000000000000000000000000000000000000,
100000000000000000000000000000000000000000500000,
000000000000000000000000000000000000000000000000,
000000000000000000000000000000000000000000000000,
000000000000000000800000000000000000000000000000,
#GOGOSTART
100000000000000000000000100000000000000000500000,
000000000000000000000000000000800000000000000000,
100000000000000000000000100000000000000000700000,
000000000000000000000000000000800000000000000000,
100000000000000000000000100000000000000000500000,
000000000000000000000000000000800000000000000000,
100000000000000000000000100000000000000000700000,
000000000000000000000000000000800000000000000000,
#GOGOEND
100000000000000000000000000000000000000000000000,
100000000000000000000000100000000000000000000000,
100000000000000000000000000000000000000000000000,
100000000000000000000000100000000000000000000000,
100000000000000000000000000000000000000000000000,
100000000000000000000000100000000000000000000000,
100000000000000000000000000000000000000000000000,
200000000000000000000000200000000000000000000000,
100000000000000000000000000000000000000000000000,
100000000000000000000000100000000000000000000000,
700000000000000000000000000000000000000000000000,
000000000000000000000000000000800000000000000000,
100000000000000000000000100000000000000000000000,
100000000000000000000000000000000000000000000000,
700000000000000000000000000000000000000000000000,
000000000000000000000000000000800000000000000000,
100000000000000000000000100000000000000000000000,
100000000000000000000000000000000000000000000000,
100000000000000000000000100000000000000000500000,
000000800000000000000000000000000000000000000000,
100000000000000000000000100000000000000000000000,
100000000000000000000000000000000000000000000000,
500000000000000000000000000000000000000000800000,
000000000000000000000000000000000000000000000000,
900000000000000000000000000000000000000000000000,
000000000000000000000000000000000000000000000000,
000000000000000000000000000000000000800000000000,
#GOGOSTART
300000000000000000000000300000000000000000000000,
300000000000300000000000300000000000000000000000,
100000000000000000000000100000000000000000000000,
100000000000100000000000100000000000000000000000,
100000000000000000000000100000000000000000000000,
100000000000100000000000100000000000000000000000,
700000000000000000000000000000000000000000000000,
000000000000000000000000000000800000000000000000,
300000000000000000000000300000000000000000000000,
300000000000300000000000300000000000000000000000,
100000000000000000000000100000000000000000000000,
200000000000200000000000200000000000000000000000,
100000000000000000000000100000000000000000000000,
100000000000000000000000000000000000000000000000,
100000000000000000000000100000000000000000000000,
100000000000000000000000000000000000000000000000,
100000000000000000000000100000000000000000000000,
100000000000000000000000100000000000000000000000,
900000000000000000000000000000000000000000000008,
#GOGOEND
#END