forked from ESE/ESE
339 lines
13 KiB
Plaintext
339 lines
13 KiB
Plaintext
//TJADB Project
|
||
TITLE:Spurt!
|
||
TITLEJA:スパート!
|
||
SUBTITLE:--Rica Matsumoto/Pokémon the Series: Advanced
|
||
SUBTITLEJA:「ポケットモンスターAG」より
|
||
BPM:183
|
||
WAVE:Spurt!.ogg
|
||
OFFSET:-1.407
|
||
DEMOSTART:44.678
|
||
|
||
COURSE:Oni
|
||
LEVEL:8
|
||
SCOREINIT:750
|
||
SCOREDIFF:160
|
||
|
||
|
||
#START
|
||
|
||
|
||
100000000000100000200000000000100000100000200000,
|
||
100000000000100000200000000000100000200000100000,
|
||
100000000000100000200000000000100000100000200000,
|
||
100000000000100000000000100000000000200000200000,
|
||
100000000000100000200000000000100000100000200000,
|
||
100000000000100000200000000000100000200000100000,
|
||
300000300000000000400000000000000000300000000000,
|
||
100000000000100000000000100000000000000000000000,
|
||
500000000000000000000000000000000000000008000000,
|
||
100000000000200000000000100000100000200000000000,
|
||
100000000000200000000000100000100000200000000000,
|
||
100000000000200000000000100000100000200000000000,
|
||
100000000000200000000000100000100000200000000000,
|
||
100000000000200000200000100000000000200000200000,
|
||
100000100000200000200000100000000000200000200000,
|
||
100000000000200000200000100000000000200000200000,
|
||
100000100000200000200000100000000000200200200000,
|
||
100000200000200000000000100000200000200000000000,
|
||
100000200000200000100000200000000000200000200000,
|
||
100000100000200000100000100000100000200000100000,
|
||
100100100100100000100000200000000000000000000000,
|
||
100000200000000000100000000000100000200000100000,
|
||
000000100000100000200000100000100000200000200000,
|
||
100000200000000000100000000000100000200000100000,
|
||
000000100000100000200000100000100000200000100000,
|
||
100000100000200000100000000000100000200000100000,
|
||
100000100100200000100000000000100000200000100000,
|
||
100000100000200000100000000000100000200000100000,
|
||
100000100100200000100000000000100000200000100000,
|
||
100000100100200000100000100000100100200000100000,
|
||
100000100100200000100000100000100100200000100000,
|
||
100100100000200000200000100100100000200000200000,
|
||
300000400000300000400000300000000000000000000000,
|
||
|
||
#GOGOSTART
|
||
100000000000200000100000000000100100200000100000,
|
||
100000000000200000100000100100100000200000100000,
|
||
100000000000200000100000000000100100200000100000,
|
||
100000000000200000100000100100100000200200100100,
|
||
100000000000200000100000000000100100200000100000,
|
||
100000000000200000100000100100100000200000100000,
|
||
100000000000200000100000200200200000100100100000,
|
||
300000000000300000000000300000000000000000000000,
|
||
100000200000100100100000200000100100100000200000,
|
||
100000200000100100100000200000100100100000100100,
|
||
100000000000200000000000000000100000200000200000,
|
||
100000200200200000100000100000200200200000100000,
|
||
100000000000200000000000000000100000100000200000,
|
||
100100100000200000200000100100100000200000200000,
|
||
200000100000100000200000100000100000200000100100,
|
||
200000100000100000200000100000100000200000000000,
|
||
|
||
#GOGOEND
|
||
100000000000100000200000000000100000100000200000,
|
||
100000000000100000200000000000100000200000100000,
|
||
100000000000100000200000000000100000100000200000,
|
||
100000000000100000000000100000100100200000000000,
|
||
|
||
#GOGOSTART
|
||
100000100000200000100000100100100000200000100000,
|
||
100000100000200000100000100000100100200000100000,
|
||
100000100000200000100000100100100000200000100000,
|
||
100000000100000000100000200000100100200200100000,
|
||
300000000000000000300000000000000000300000000000,
|
||
100000200000000000100000100100100100100000000000,
|
||
300000000000400000300000000000400000600000000000,
|
||
000000000000000000000000000000000000000000000000,
|
||
000000000000000000000000000000000008000000000000,
|
||
100100100100100100200000000000000000300000300000,
|
||
#GOGOEND
|
||
|
||
|
||
#END
|
||
|
||
|
||
COURSE:Hard
|
||
LEVEL:6
|
||
BALLOON:8,32
|
||
SCOREINIT:850
|
||
SCOREDIFF:210
|
||
|
||
|
||
#START
|
||
|
||
|
||
100000000000100000200000000000000000100000000000,
|
||
100000000000000000200000000000000000200000000000,
|
||
100000000000000000200000000000000000100000000000,
|
||
100000000000100000000000100000000000000000000000,
|
||
100000000000100000200000000000000000100000000000,
|
||
100000000000000000200000000000000000200000000000,
|
||
300000300000000000400000000000000000300000000000,
|
||
100000000000100000000000100000000000000000000000,
|
||
500000000000000000000000000000000000800000000000,
|
||
100000000000200000000000100000100000200000000000,
|
||
100000000000200000000000100000100000200000000000,
|
||
100000000000200000000000100000100000200000000000,
|
||
100000000000200000000000100000100000200000000000,
|
||
100000000000000000000000100000000000000000000000,
|
||
100000100000100000100000100000000000000000000000,
|
||
100000100000100000000000200000200000200000000000,
|
||
100000100000100000100000100000000000000000000000,
|
||
100000000000200000000000100000000000200000000000,
|
||
100000100000100000100000100000000000000000000000,
|
||
100000100000100000000000200000200000200000000000,
|
||
100000100000100000100000200000000000000000000000,
|
||
100000200000000000100000000000500000000000000000,
|
||
000000000000000000000000000000800000000000000000,
|
||
100000200000000000100000000000500000000000000000,
|
||
000000000000000000000000000000800000000000000000,
|
||
100000100000200000000000100000100000200000000000,
|
||
100000100000100000100000100000000000000000000000,
|
||
100000100000200000000000100000100000200000000000,
|
||
100000100000100000100000100000000000000000000000,
|
||
100000100000200000000000100000100000200000000000,
|
||
100000100000200000000000100000100000200000000000,
|
||
100000200000100000000000100000200000100000000000,
|
||
300000400000300000400000300000000000000000000000,
|
||
#GOGOSTART
|
||
100000000000200000100000000000100000200000000000,
|
||
100000000000200000100000000000100000200000100000,
|
||
100000000000200000100000000000100000200000100000,
|
||
100000000000100000000000100000000000000000000000,
|
||
100000000000200000100000000000100000200000000000,
|
||
100000000000200000100000000000100000200000100000,
|
||
100000000000200000100000000000100000200000100000,
|
||
300000000000300000000000300000000000000000000000,
|
||
100000000000200000000000100000100000200000100000,
|
||
100000000000200000000000100000100000200000100000,
|
||
100000000000200000000000100000000000200000000000,
|
||
100000000000200000000000100000100000200000100000,
|
||
100000000000200000000000100000200000200000100000,
|
||
100000000000200000000000100000200000200000100000,
|
||
100000000000200000000000100000100000200000100000,
|
||
500000000000000000000000000000800000000000000000,
|
||
#GOGOEND
|
||
100000000000100000200000000000000000100000000000,
|
||
100000000000000000200000000000000000100000000000,
|
||
100000100000000000200000000000000000100000000000,
|
||
100000000000100000000000100000000000000000000000,
|
||
#GOGOSTART
|
||
100000000000200000100000000000100000200000000000,
|
||
100000000000200000100000000000100000200000100000,
|
||
100000000000200000100000000000100000200000100000,
|
||
100000000000100000000000100000000000000000000000,
|
||
300000000000000000300000000000000000700000000000,
|
||
000000000000000000000000800000000000000000000000,
|
||
300000000000000000300000000000000000700000000000,
|
||
000000000000000000000000000000000000000000000000,
|
||
000000000000000000000000000000000000000000000000,
|
||
000000000000800000000000000000000000300000300000,
|
||
#GOGOEND
|
||
|
||
|
||
#END
|
||
|
||
|
||
COURSE:Normal
|
||
LEVEL:3
|
||
BALLOON:24
|
||
SCOREINIT:990
|
||
SCOREDIFF:360
|
||
|
||
|
||
#START
|
||
|
||
|
||
100000000000000000000000000000000000000000000000,
|
||
100000000000000000000000000000000000000000000000,
|
||
100000000000000000000000000000000000000000000000,
|
||
100000000000100000000000100000000000000000000000,
|
||
100000000000000000000000000000000000000000000000,
|
||
100000000000000000000000000000000000000000000000,
|
||
300000000000000000300000000000000000300000000000,
|
||
100000000000100000000000100000000000000000000000,
|
||
500000000000000000000000000000000000000000000000,
|
||
000000000000000000000000000000000000000000800000,
|
||
000000000000000000000000000000000000000000000000,
|
||
000000000000000000000000000000000000000000000000,
|
||
000000000000000000000000000000000000000000000000,
|
||
100000000000000000000000200000000000000000000000,
|
||
100000000000000000000000100000000000000000000000,
|
||
100000000000000000000000200000000000000000000000,
|
||
100000000000100000000000100000000000000000000000,
|
||
100000000000000000000000200000000000000000000000,
|
||
100000000000000000000000100000000000000000000000,
|
||
100000000000000000000000100000000000000000000000,
|
||
100000000000100000000000100000000000000000000000,
|
||
100000000000000000100000000000000000500000000000,
|
||
000000000000000000000000800000000000000000000000,
|
||
100000000000000000100000000000000000500000000000,
|
||
000000000000000000000000800000000000000000000000,
|
||
300000000000000000000000100000000000000000000000,
|
||
100000000000100000000000100000000000000000000000,
|
||
300000000000000000000000100000000000000000000000,
|
||
100000000000100000000000100000000000000000000000,
|
||
300000000000000000000000000000000000000000000000,
|
||
300000000000000000000000000000000000000000000000,
|
||
300000000000000000000000300000000000000000000000,
|
||
300000000000300000000000300000000000000000000000,
|
||
#GOGOSTART
|
||
300000000000000000000000000000000000300000000000,
|
||
300000000000000000000000000000000000300000000000,
|
||
300000000000000000000000000000000000100000000000,
|
||
100000000000100000000000100000000000000000000000,
|
||
300000000000000000000000000000000000300000000000,
|
||
300000000000000000000000000000000000300000000000,
|
||
300000000000000000000000000000000000300000000000,
|
||
300000000000300000000000300000000000000000000000,
|
||
100000000000000000000000200000000000000000000000,
|
||
100000000000000000000000200000000000000000000000,
|
||
100000000000000000000000000000000000000000000000,
|
||
100000000000000000000000000000000000000000000000,
|
||
100000000000000000000000200000000000000000000000,
|
||
100000000000000000000000200000000000000000000000,
|
||
100000000000000000000000100000000000000000000000,
|
||
500000000000000000000000800000000000000000000000,
|
||
#GOGOEND
|
||
100000000000000000000000000000000000100000000000,
|
||
100000000000000000000000000000000000000000000000,
|
||
100000000000000000000000000000000000000000000000,
|
||
100000000000100000000000100000000000000000000000,
|
||
#GOGOSTART
|
||
300000000000000000000000000000000000300000000000,
|
||
300000000000000000000000000000000000300000000000,
|
||
300000000000000000000000000000000000100000000000,
|
||
100000000000100000000000100000000000000000000000,
|
||
300000000000000000300000000000000000500000000000,
|
||
000000000000000000000000800000000000000000000000,
|
||
300000000000000000300000000000000000700000000000,
|
||
000000000000000000000000000000000000000000000000,
|
||
000000000000000000000000000000000000000000000000,
|
||
000000000000800000000000000000000000300000300000,
|
||
#GOGOEND
|
||
|
||
|
||
#END
|
||
|
||
|
||
COURSE:Easy
|
||
LEVEL:2
|
||
BALLOON:18
|
||
SCOREINIT:1380
|
||
SCOREDIFF:420
|
||
|
||
|
||
#START
|
||
|
||
|
||
100000000000000000000000000000000000000000000000,
|
||
100000000000000000000000000000000000000000000000,
|
||
100000000000000000000000000000000000000000000000,
|
||
100000000000000000000000100000000000000000000000,
|
||
100000000000000000000000000000000000000000000000,
|
||
100000000000000000000000000000000000000000000000,
|
||
100000000000000000000000000000000000000000000000,
|
||
100000000000000000000000100000000000000000000000,
|
||
500000000000000000000000000000000000000000000000,
|
||
000000000000000000000000000000000000000000800000,
|
||
000000000000000000000000000000000000000000000000,
|
||
000000000000000000000000000000000000000000000000,
|
||
000000000000000000000000000000000000000000000000,
|
||
100000000000000000000000000000000000000000000000,
|
||
100000000000000000000000100000000000000000000000,
|
||
100000000000000000000000000000000000000000000000,
|
||
100000000000000000000000100000000000000000000000,
|
||
100000000000000000000000000000000000000000000000,
|
||
100000000000000000000000100000000000000000000000,
|
||
100000000000000000000000000000000000000000000000,
|
||
100000000000100000000000100000000000000000000000,
|
||
100000000000000000000000000000000000500000000000,
|
||
000000000000000000000000800000000000000000000000,
|
||
100000000000000000000000000000000000500000000000,
|
||
000000000000000000000000800000000000000000000000,
|
||
300000000000000000000000000000000000000000000000,
|
||
100000000000000000000000200000000000000000000000,
|
||
300000000000000000000000000000000000000000000000,
|
||
100000000000000000000000200000000000000000000000,
|
||
300000000000000000000000000000000000000000000000,
|
||
300000000000000000000000000000000000000000000000,
|
||
500000000000000000000000000000000000000000800000,
|
||
000000000000000000000000000000000000000000000000,
|
||
#GOGOSTART
|
||
300000000000000000000000000000000000000000000000,
|
||
300000000000000000000000000000000000000000000000,
|
||
300000000000000000000000000000000000000000000000,
|
||
100000000000100000000000100000000000000000000000,
|
||
300000000000000000000000000000000000000000000000,
|
||
300000000000000000000000000000000000000000000000,
|
||
300000000000000000000000000000000000000000000000,
|
||
100000000000100000000000100000000000000000000000,
|
||
000000000000000000000000000000000000000000000000,
|
||
100000000000000000000000200000000000000000000000,
|
||
100000000000000000000000000000000000000000000000,
|
||
100000000000000000000000000000000000000000000000,
|
||
100000000000000000000000200000000000000000000000,
|
||
100000000000000000000000200000000000000000000000,
|
||
100000000000000000000000000000000000000000000000,
|
||
500000000000000000000000800000000000000000000000,
|
||
#GOGOEND
|
||
100000000000000000000000000000000000000000000000,
|
||
100000000000000000000000000000000000000000000000,
|
||
100000000000000000000000000000000000000000000000,
|
||
100000000000100000000000100000000000000000000000,
|
||
#GOGOSTART
|
||
300000000000000000000000000000000000000000000000,
|
||
300000000000000000000000000000000000000000000000,
|
||
300000000000000000000000000000000000000000000000,
|
||
100000000000100000000000100000000000000000000000,
|
||
300000000000000000300000000000000000500000000000,
|
||
000000000000000000000000800000000000000000000000,
|
||
300000000000000000300000000000000000900000000000,
|
||
,
|
||
,
|
||
00080000,
|
||
|
||
|
||
#END
|
||
|