forked from ESE/ESE
448 lines
6.9 KiB
Plaintext
448 lines
6.9 KiB
Plaintext
//TJADB Project
|
|
TITLE:Tank!
|
|
TITLEJA:Tank!
|
|
SUBTITLE:--Yoko Kanno/Cowboy Bebop
|
|
SUBTITLEJA:アニメ「カウボーイ ビバップ」より
|
|
BPM:138
|
|
WAVE:Tank!.ogg
|
|
OFFSET:-2.728
|
|
DEMOSTART:16.641
|
|
|
|
COURSE:Edit
|
|
LEVEL:9
|
|
SCOREINIT:600
|
|
SCOREDIFF:163
|
|
|
|
|
|
#START
|
|
|
|
|
|
1101101101101020,
|
|
#BPMCHANGE 137.8
|
|
102020202020100000200100000100100000400000000000,
|
|
#BPMCHANGE 137.53
|
|
1,
|
|
#BPMCHANGE 138.68
|
|
1000000000000022,
|
|
#BPMCHANGE 138
|
|
1202202012002102,
|
|
1220201212201222,
|
|
1001002002102112,
|
|
1220101121002122,
|
|
1202201121102112,
|
|
1002011021102111,
|
|
1202201121002111,
|
|
1002021022102210,
|
|
1202201121102111,
|
|
1002011021102111,
|
|
1202201120001112,
|
|
1002021022102210,
|
|
1102101102102100,
|
|
100100000200100000100100000200100000202020200200,
|
|
1202211102122112,
|
|
00303304,
|
|
200000200000200200000200202010202010202010202020,//21
|
|
|
|
#GOGOSTART
|
|
2202021022022012,
|
|
2002201220022012,
|
|
200000000200200000100200200000000200202020202020,
|
|
1202201120021020,
|
|
100200000200200000100200202020200100200100100000,
|
|
3003002210010022,
|
|
201010100100200000100200200200200200200200200200,//28
|
|
|
|
#GOGOEND
|
|
1202201020202212,
|
|
1220111022121200,
|
|
1202201102022210,
|
|
1103040404011040,
|
|
1202221102021012,
|
|
2222111121212100,
|
|
1202201202022010,
|
|
1202201212022020,
|
|
1202101202102100,
|
|
1202201202122101,
|
|
1100201100201200,
|
|
1022222221002222,//40
|
|
|
|
#GOGOSTART
|
|
100000000300000000300000202020202020200200100200,
|
|
1202001021101220,
|
|
1201201120022011,
|
|
1222221112022210,
|
|
3003004000030040,
|
|
0003004000030040,//46
|
|
|
|
#GOGOEND
|
|
3,
|
|
#MEASURE 3/4
|
|
000000000000000002,
|
|
#MEASURE 2/4
|
|
1,
|
|
#MEASURE 4/4
|
|
600000000000000000008000000000000100100000100100,
|
|
000100100000000000000000201010100201000400000000,
|
|
400000000400000000000200102020202000101010101000,
|
|
#MEASURE 3/4
|
|
221221221212121212,
|
|
#MEASURE 2/4
|
|
1,
|
|
#MEASURE 4/4
|
|
3,
|
|
|
|
|
|
#END
|
|
|
|
|
|
COURSE:Oni
|
|
LEVEL:9
|
|
SCOREINIT:660
|
|
SCOREDIFF:170
|
|
|
|
|
|
#START
|
|
|
|
|
|
2202202202202020,
|
|
#BPMCHANGE 137.8
|
|
100020202020200100200100000100100000200000000000,
|
|
#BPMCHANGE 137.53
|
|
1001002020020010,
|
|
#BPMCHANGE 138.68
|
|
1001002020020010,
|
|
#BPMCHANGE 138
|
|
1202202012202211,
|
|
1220201211202211,
|
|
2002004002102211,
|
|
1220202112104000,
|
|
1201201201202022,
|
|
1201221122112211,
|
|
1201201201202022,
|
|
1201221122112211,
|
|
2101202101202022,
|
|
1201221122112212,
|
|
1201201201202022,
|
|
1201221122112212,
|
|
1112021112012101,
|
|
2221012221021202,
|
|
1201201201200030,
|
|
00303306,
|
|
000000000000000000000008000000000000000000200000,//21
|
|
|
|
#GOGOSTART
|
|
1210201110102212,
|
|
1010201110102211,
|
|
2021201210212012,
|
|
1210201110102212,
|
|
1010201110102211,
|
|
2021201210212012,
|
|
1004003040030040,//28
|
|
|
|
#GOGOEND
|
|
1201201201202022,
|
|
1010221110112210,
|
|
1201201201202022,
|
|
1201010101012020,
|
|
2101202101202022,
|
|
1122101021212210,
|
|
1201201201202022,
|
|
1120201120400002,
|
|
1112021112012101,
|
|
2221012221012102,
|
|
1112021112012100,
|
|
0011000221100000,//40
|
|
|
|
#GOGOSTART
|
|
30060000,
|
|
000000000000000000000000000008000000000000000000,
|
|
40060000,
|
|
000000000000000000000000000008000000000000000000,
|
|
3003003000040030,
|
|
0004003000040030,
|
|
|
|
#GOGOEND
|
|
0022222222222022,
|
|
#MEASURE 3/4
|
|
222022222000,
|
|
#MEASURE 2/4
|
|
4,
|
|
#MEASURE 4/4
|
|
300000000000000000000000000200000100000100010001,
|
|
000200010001000100010000101010101010000400000000,
|
|
000000300000222222111111,
|
|
#MEASURE 3/4
|
|
221122112211212100,
|
|
#MEASURE 2/4
|
|
4,
|
|
#MEASURE 4/4
|
|
3,
|
|
|
|
|
|
#END
|
|
|
|
|
|
COURSE:Hard
|
|
LEVEL:7
|
|
BALLOON:50
|
|
SCOREINIT:730
|
|
SCOREDIFF:200
|
|
|
|
|
|
#START
|
|
|
|
|
|
2202202202202000,
|
|
#BPMCHANGE 137.8
|
|
1022201110102000,
|
|
#BPMCHANGE 137.53
|
|
1,
|
|
#BPMCHANGE 138.68
|
|
1,
|
|
#BPMCHANGE 138
|
|
1001001011012000,
|
|
1001001011102000,
|
|
1001001011012000,
|
|
3330,
|
|
1101101101100020,
|
|
1010222011102000,
|
|
1101101101100020,
|
|
1010222011102000,
|
|
2202202202200020,
|
|
1010222011111000,
|
|
1101101101100020,
|
|
1010222011102000,
|
|
30430430,
|
|
40340340,
|
|
1102201102200010,
|
|
00303306,
|
|
000000000000000000000008000000000000000000000000,//21
|
|
|
|
#GOGOSTART
|
|
1000201110102000,
|
|
1010201110102000,
|
|
1001001110222000,
|
|
1000201110102000,
|
|
1010201110102000,
|
|
1001001110010011,
|
|
1002001022222000,//28
|
|
|
|
#GOGOEND
|
|
1101101101100020,
|
|
1010222030303000,
|
|
1101101101100020,
|
|
1101010101022000,
|
|
2202202202200022,
|
|
2020222030303000,
|
|
1101101101100020,
|
|
1120201110400000,
|
|
30430430,
|
|
40340340,
|
|
30430430,
|
|
0022000022000000,//40
|
|
|
|
#GOGOSTART
|
|
30060000,
|
|
000000000000000000000000000008000000000000000000,
|
|
40060000,
|
|
000000000000000000000000000008000000000000000000,
|
|
3003003000040030,
|
|
0004003000040030,//46
|
|
|
|
#GOGOEND
|
|
0022222222222022,
|
|
#MEASURE 3/4
|
|
222022222000,
|
|
#MEASURE 2/4
|
|
3,
|
|
#MEASURE 4/4
|
|
7,
|
|
,
|
|
0008,
|
|
#MEASURE 3/4
|
|
,
|
|
#MEASURE 2/4
|
|
4,
|
|
#MEASURE 4/4
|
|
3,
|
|
|
|
|
|
#END
|
|
|
|
|
|
COURSE:Normal
|
|
LEVEL:5
|
|
BALLOON:7,7,12,30
|
|
SCOREINIT:1460
|
|
SCOREDIFF:913
|
|
|
|
|
|
#START
|
|
|
|
|
|
,
|
|
#BPMCHANGE 137.8
|
|
,
|
|
#BPMCHANGE 137.53
|
|
1,
|
|
#BPMCHANGE 138.68
|
|
1,//4
|
|
#BPMCHANGE 138
|
|
1,
|
|
1,
|
|
11,
|
|
3330,
|
|
10010005,
|
|
000000000000000000000008000000000000000000000000,
|
|
10010005,
|
|
000000000000000000000008000000000000000000000000,
|
|
20020007,
|
|
00000800,
|
|
10010005,
|
|
000000000000000000000008000000000000000000000000,
|
|
30030030,
|
|
40040040,
|
|
10010001,
|
|
00303306,
|
|
000000000000000000000008000000000000000000000000,//21
|
|
|
|
#GOGOSTART
|
|
10201120,
|
|
10201120,
|
|
1001001010000000,
|
|
1202,
|
|
1202,
|
|
3003000030030000,
|
|
600000000000000000000000000008000000000000000000,//28
|
|
|
|
#GOGOEND
|
|
10010005,
|
|
000000000000000000000008000000000000000000000000,
|
|
10010005,
|
|
000000000000000000000008000000000000000000000000,
|
|
20020007,
|
|
0000000000080000,
|
|
10010005,
|
|
000000000000000000000008000000000000000000000000,
|
|
30030030,
|
|
40040040,
|
|
30030030,
|
|
04004000,//40
|
|
|
|
#GOGOSTART
|
|
30060000,
|
|
000000000000000000000000000008000000000000000000,
|
|
40060000,
|
|
000000000000000000000000000008000000000000000000,
|
|
3003003000040030,
|
|
0004003000040030,//46
|
|
|
|
#GOGOEND
|
|
07000000,
|
|
#MEASURE 3/4
|
|
08,
|
|
#MEASURE 2/4
|
|
3,
|
|
#MEASURE 4/4
|
|
9,
|
|
,
|
|
9008,
|
|
#MEASURE 3/4
|
|
,
|
|
#MEASURE 2/4
|
|
4,
|
|
#MEASURE 4/4
|
|
3,
|
|
|
|
|
|
#END
|
|
|
|
|
|
COURSE:Easy
|
|
LEVEL:5
|
|
BALLOON:4,4,7,18
|
|
SCOREINIT:1050
|
|
SCOREDIFF:648
|
|
|
|
|
|
#START
|
|
|
|
|
|
,
|
|
#BPMCHANGE 137.8
|
|
,
|
|
#BPMCHANGE 137.53
|
|
1,
|
|
#BPMCHANGE 138.68
|
|
1,//4
|
|
#BPMCHANGE 138
|
|
1,
|
|
1,
|
|
11,
|
|
3330,
|
|
10010005,
|
|
000000000000000000000008000000000000000000000000,
|
|
10010005,
|
|
000000000000000000000008000000000000000000000000,
|
|
20020007,
|
|
0000000000080000,
|
|
10010005,
|
|
000000000000000000000008000000000000000000000000,
|
|
30030000,
|
|
30030000,
|
|
10010001,
|
|
00303306,
|
|
000000000000000000000008000000000000000000000000,//21
|
|
|
|
#GOGOSTART
|
|
10101110,
|
|
10101110,
|
|
1001000010000000,
|
|
1200,
|
|
1200,
|
|
3003000030030000,
|
|
600000000000000000000008000000000000000000000000,//28
|
|
|
|
#GOGOEND
|
|
10010005,
|
|
000000000000000000000008000000000000000000000000,
|
|
10010005,
|
|
000000000000000000000008000000000000000000000000,
|
|
20020007,
|
|
0000000000080000,
|
|
10010005,
|
|
000000000000000000000008000000000000000000000000,
|
|
30030000,
|
|
40040000,
|
|
30030000,
|
|
04004000,
|
|
|
|
#GOGOSTART
|
|
30060000,
|
|
000000000000000000000000000008000000000000000000,
|
|
30060000,
|
|
000000000000000000000000000008000000000000000000,
|
|
3003003000030030,
|
|
0003003000030030,
|
|
|
|
#GOGOEND
|
|
07000000,
|
|
#MEASURE 3/4
|
|
08,
|
|
#MEASURE 2/4
|
|
3,
|
|
#MEASURE 4/4
|
|
9,
|
|
,
|
|
9008,
|
|
#MEASURE 3/4
|
|
,
|
|
#MEASURE 2/4
|
|
,
|
|
#MEASURE 4/4
|
|
3,
|
|
|
|
|
|
#END
|
|
|