Files
2023-06-15 19:15:39 -05:00

330 lines
13 KiB
Plaintext

//TJADB Project
TITLE:Toumeidatta Sekai
TITLEJA:透明だった世界
SUBTITLE:--Motohiro Hata/NARUTO-Shippuuden
SUBTITLEJA:「NARUTO−ナルト− 疾風伝」より
BPM:168
WAVE:Toumeidatta Sekai.ogg
OFFSET:-2.421
DEMOSTART:50.955
COURSE:Oni
LEVEL:6
SCOREINIT:720
SCOREDIFF:170
#START
100000100000200000000000100000100000200000100000,
000000100000200000100000200000100000200000000000,
100000100000200000000000100000100100200000100000,
000000100000200000100000200000100100200000200000,
100000100000200000000000100000100000200000100000,
000000100000200000100000200000100000200000000000,
100000100000200000000000100000100100200000100000,
500000000000000000000000000000000008000000000000,
#BPMCHANGE 166.91
100000000000000000000000000000000000000000000000,
#BPMCHANGE 169.11
200000000000200000000000200000200000200000000000,
#BPMCHANGE 168
100000000000200000000000200000000200100000200000,
100000100000200000000000200000000200100000200000,
100000000000200000000000200000000200100000200000,
100000100000200000000000200000000200100000200000,
100000000000200000000000200000000200100000200000,
100000100000200000100000200000000200200000200000,
100000000000200000100000200000000200100000200000,
100000100000200000000000200000000200100000200000,
100000000000200000100000200000000200100000200000,
100000100000200000100000200000000200100000200000,
100000000000200000100000200000000200100000200000,
100000100000200000100000200000000200100000200000,
100000000000200000100000200000000200100000200000,
100000100000200000000000100000100000200200200000,
100000100000200000000000100000000000200200100000,
000000100100200000200000100000100000200000000000,
100000100100200000000000100000000000200200100000,
000000100000200000100000200000100000200200200000,
100000100000200000000000100000000000200200100000,
000000100100200000100000200000100000200000000000,
100000100000200000000000100000100000200000100000,
500000000000000000000000000000000008000000000000,
100000100000200000000000100000100000200200200000,
500000000000000000000008000000000000000000000000,
#GOGOSTART
100000100000200000100000000000100000200000200000,
000000100000200000100000200000100100200000200000,
100000100000200000100000000000100000200000200000,
000000100100200000100000200000100100200000200000,
100000100000200000100000000000100000200000200000,
100000100000200000100000000000100100200000100000,
100000000000200000100000100000100100200000100000,
000000100000200000000000100000100100200000000000,
100000100000200000100000000000100000200000200000,
000000100000200000100000200000100100200000200000,
100000100000200000100000000000100000200000200000,
000000100000200000100000200000100100200000200000,
100000100000200000100000000000000000200000000000,
100000100000200000100000000000100000200000200000,
100000000000200000100100100000100100200000100000,
000000000000200000000000100000100100200200200000,
100000100000200000200000100000000000200000100000,
000000100000200000100000200000100100200000000000,
100000100000200000200000100000000000200000100000,
000000100000200000100000200000100100200000200000,
100000100000200000200000100000000000200000100000,
000000100000200000100000200000100100200000000000,
100000100000200000200000100000000000200000100000,
000000100000200000100000100100100000200200200000,
#GOGOEND
#BPMCHANGE 167.21
300000000000000000000000000000000000000000000000,
#END
COURSE:Hard
LEVEL:5
SCOREINIT:790
SCOREDIFF:190
#START
100000000000200000000000100000000000100000100000,
000000000000200000000000100000100000200000000000,
100000000000200000000000100000000000100000100000,
000000000000200000000000100000100000200000000000,
100000000000200000000000100000000000100000100000,
000000000000200000000000100000100000200000000000,
100000000000200000000000100000000000100000100000,
500000000000000000000000000000800000000000000000,
#BPMCHANGE 166.91
100000000000000000000000000000000000000000000000,
#BPMCHANGE 169.11
200000000000000000000000200000000000200000000000,
#BPMCHANGE 168
100000000000200000000000100000200000200000000000,
100000000000200000000000100000200000200000000000,
100000000000200000000000100000000000100000000000,
100000000000200000000000100000000000100000000000,
100000000000200000000000100000200000200000000000,
100000000000000000000000000000000000000000000000,
100000000000200000000000100000200000200000000000,
100000000000200000000000100000200000200000000000,
100000000000200000000000100000000000100000000000,
100000000000200000000000100000000000000000000000,
100000000000200000000000100000200000200000000000,
100000000000200000000000100000200000200000000000,
100000000000200000200000100000000000200000200000,
100000000000000000000000000000000000000000000000,
100000100000200000000000100000000000200000100000,
000000100000200000000000100000100000200000000000,
100000100000200000000000100000000000200000100000,
000000100000200000000000100100100000200000000000,
100000100000200000000000100000000000200000100000,
000000100000200000000000100100100000200000000000,
100000000000200000000000100000100000200000100000,
100000000000200000000000100000100000200000000000,
100000000000200000000000100000100000200000100000,
500000000000000000000800000000000000000000000000,
#GOGOSTART
100000100000200000100000000000100000200000000000,
100000100000200000000000100100100000200000000000,
100000100000200000100000000000100000200000000000,
100000100000200000000000100100100000200000000000,
100000000000200000100000000000100000200000000000,
100000000000200000100000000000100000200000000000,
100000000000200000000000100000100000200000100000,
000000000000200000000000100000100100100000000000,
100000100000200000100000000000100000200000000000,
100000100000200000000000100100100000200000000000,
100000100000200000100000000000100000200000000000,
100000100000200000000000100100100000200000000000,
100000000000200000100000000000000000200000000000,
100000100000200000100000000000000000200000000000,
100000000000200000100000000000000000200000100000,
000000000000200000000000100000100100100000000000,
100000000000200000100000200000000000200000100000,
200000000000200000100000200000000000200000000000,
100000000000200000100000200000000000200000100000,
200000000000200000100000200000000000200000000000,
100000100000200000100000200000000000200000100000,
200000000000200000100000200000000000200000000000,
100000100000200000100000200000000000200000100000,
200000000000200000100000200000100000200000000000,
#GOGOEND
#BPMCHANGE 167.21
300000000000000000000000000000000000000000000000,
#END
COURSE:Normal
LEVEL:4
BALLOON:6,6,12,22
SCOREINIT:1640
SCOREDIFF:540
#START
#SCROLL 0.8
100000000000100000000000100000000000000000000000,
100000000000000000000000000000000000000000000000,
100000000000100000000000100000000000000000000000,
100000000000000000000000000000000000000000000000,
100000000000100000000000100000000000000000000000,
100000000000000000000000000000000000000000000000,
100000000000100000000000100000000000000000000000,
500000000000000000000000000000000000000000800000,
#BPMCHANGE 166.91
000000000000000000000000000000000000000000000000,
#BPMCHANGE 169.11
200000000000000000000000200000000000000000000000,
#BPMCHANGE 168
100000000000100000000000100000000000000000000000,
100000000000100000000000500000000000000000000000,
000000800000000000000000000000000000000000000000,
100000000000100000000000100000000000000000000000,
100000000000100000000000100000000000000000000000,
000000000000000000000000000000000000000000000000,
200000000000000000000000200000000000000000000000,
100000000000100000000000100000000000000000000000,
100000000000100000000000100000000000000000000000,
100000000000100000000000500000000000000000000000,
000000800000000000000000000000000000000000000000,
100000000000100000000000100000000000000000000000,
100000000000100000000000100000000000000000000000,
100000000000000000000000000000000000000000000000,
100000000000000000000000100000000000100000100000,
000000000000000000000000200000000000000000000000,
100000000000000000000000100000000000100000100000,
000000000000000000000000200000000000000000000000,
100000000000000000000000100000000000100000100000,
000000000000000000000000200000000000000000000000,
100000000000100000000000100000000000000000000000,
100000000000100000000000100000000000000000000000,
100000000000100000000000100000100000100000000000,
500000000000000000800000000000000000000000000000,
#GOGOSTART
100000000000100000000000200000000000200000000000,
100000000000000000000000100000100000100000000000,
100000000000100000000000200000000000200000000000,
100000000000000000000000200000000000200000000000,
500000000000000000000000800000000000000000000000,
100000000000000000000000100000000000000000000000,
700000000000000000000000000000000000000000800000,
000000000000000000000000000000000000000000000000,
100000000000100000000000200000000000200000000000,
100000000000000000000000100000100000100000000000,
100000000000100000000000200000000000200000000000,
100000000000000000000000200000000000200000000000,
500000000000000000000000800000000000000000000000,
100000000000000000000000100000000000000000000000,
700000000000000000000000000000000000000000800000,
000000000000000000000000000000000000000000000000,
700000000000000000000000000000000000000000000000,
000000000000000000000000000000000000000000000000,
000000000000000000000000000000000000000000800000,
000000000000000000000000000000000000000000000000,
700000000000000000000000000000000000000000000000,
000000000000000000000000000000000000000000000000,
000000000000000000000000000000000000000000000000,
000000000000000000000000000000000000000000000008,
#GOGOEND
#END
COURSE:Easy
LEVEL:3
BALLOON:8,18
SCOREINIT:1150
SCOREDIFF:460
#START
#SCROLL 0.8
100000000000000000000000100000000000000000000000,
100000000000000000000000000000000000000000000000,
100000000000000000000000100000000000000000000000,
100000000000000000000000000000000000000000000000,
100000000000000000000000100000000000000000000000,
100000000000000000000000000000000000000000000000,
100000000000000000000000100000000000000000000000,
500000000000000000000000000000000000000000800000,
#BPMCHANGE 166.91
000000000000000000000000000000000000000000000000,
#BPMCHANGE 169.11
100000000000000000000000100000000000000000000000,
#BPMCHANGE 168
100000000000000000000000000000000000000000000000,
100000000000000000000000100000000000000000000000,
100000000000000000000000000000000000000000000000,
100000000000000000000000100000000000000000000000,
500000000000000000000000000000000000000000800000,
000000000000000000000000000000000000000000000000,
100000000000000000000000000000000000000000000000,
100000000000000000000000100000000000000000000000,
100000000000000000000000000000000000000000000000,
100000000000000000000000100000000000000000000000,
100000000000000000000000000000000000000000000000,
100000000000000000000000100000000000000000000000,
100000000000000000000000100000000000000000000000,
100000000000000000000000000000000000000000000000,
100000000000100000000000100000000000000000000000,
000000000000000000000000200000000000000000000000,
100000000000100000000000100000000000000000000000,
000000000000000000000000200000000000000000000000,
100000000000100000000000100000000000000000000000,
000000000000000000000000200000000000000000000000,
100000000000100000000000100000000000000000000000,
100000000000000000000000100000000000000000000000,
100000000000100000000000100000000000000000000000,
300000000000000000000000000000000000000000000000,
#GOGOSTART
300000000000000000000000300000000000000000000000,
300000000000000000000000100000000000100000000000,
300000000000000000000000300000000000000000000000,
300000000000000000000000100000000000100000000000,
600000000000000000800000000000000000000000000000,
100000000000100000000000100000000000000000000000,
500000000000000000000000000000000000000000800000,
000000000000000000000000000000000000000000000000,
300000000000000000000000300000000000000000000000,
300000000000000000000000100000000000100000000000,
300000000000000000000000300000000000000000000000,
300000000000000000000000100000000000100000000000,
600000000000000000800000000000000000000000000000,
100000000000100000000000100000000000000000000000,
500000000000000000000000000000000000000000800000,
000000000000000000000000000000000000000000000000,
700000000000000000000000000000000000000000000000,
000000000000000000000000000000000000000000000000,
000000000000000000000000000000000000000000800000,
000000000000000000000000000000000000000000000000,
700000000000000000000000000000000000000000000000,
000000000000000000000000000000000000000000000000,
000000000000000000000000000000000000000000000000,
000000000000000000000000000000000000000000000008,
#GOGOEND
#END