Files
2023-06-15 19:15:39 -05:00

329 lines
2.9 KiB
Plaintext

//TJADB Project
TITLE:Zutto Zutto Tomodachi
TITLEJA:ずっとずっとトモダチ
SUBTITLE:--Mana Ashida/Jewelpet Kira☆Deco!
SUBTITLEJA:「ジュエルペット きら☆デコッ!」主題歌
BPM:160
WAVE:Zutto Zutto Tomodachi.ogg
OFFSET:-2.083
DEMOSTART:63.564
COURSE:Oni
LEVEL:4
SCOREINIT:700
SCOREDIFF:213
#START
1010101000222000,
11110040,
#GOGOSTART
11201201,
01201120,
1000201010222000,
3434,
11201201,
01201120,
1000201010222000,
3436,
000000000000000000000000000000000008000000000000,
#GOGOEND
11221122,
12123030,
11221122,
12123030,
500000000000000000000000000008000000000000100000,
01011040,
11211020,
11221020,
11211021,
01201021,
02120212,
02120210,
10120212,
02022030,
11211020,
11221020,
11211021,
01201021,
02120212,
02120210,
1020102010201110,
02022010,
10210101,
20000121,
20210101,
2000000011111010,
0010102022201010,
0010102022201000,
30303044,
04044000,
#GOGOSTART
11201201,
01201120,
1000201010222000,
3434,
11201201,
01201120,
1000201010222000,
3434,
10212120,
10210120,
10212120,
10210120,
1010201110100030,
03403044,
1010222010102220,
1010222030003000,
3000001110000000,
#GOGOEND
#END
COURSE:Hard
LEVEL:3
SCOREINIT:640
SCOREDIFF:200
#START
11110000,
11110000,
#GOGOSTART
11201201,
01212020,
10022000,
3333,
11201201,
01212020,
10022000,
3336,
0008,
#GOGOEND
11201120,
11223030,
11201120,
11223030,
50000801,
01011000,
10201120,
10201120,
10201120,
10201012,
02120212,
02120210,
10110112,
02022000,
10201120,
10201120,
10201120,
10201012,
02120212,
02120210,
12121211,
02022010,
10210101,
20000121,
20210101,
20000001,
01122011,
01122010,
30303044,
04044000,
#GOGOSTART
11201201,
01212020,
10022000,
3333,
11201201,
01212020,
10022000,
3333,
10201120,
10221120,
10201120,
10210020,
11201003,
03403044,
11221122,
11223030,
3000001110000000,
#GOGOEND
#END
COURSE:Normal
LEVEL:2
BALLOON:5
SCOREINIT:1230
SCOREDIFF:875
#START
,
,
#GOGOSTART
1110,
1110,
11,
50000800,
1110,
1110,
11,
3336,
00000800,
#GOGOEND
11,
1033,
11,
1033,
7,
8,
11,
1,
11,
1,
2,
2,
10001005,
00000800,
11,
1,
11,
1,
2,
2,
10001005,
00000800,
1011,
2,
1011,
20000003,
05008003,
05000800,
3333,
,
#GOGOSTART
1110,
1110,
11,
50000800,
1110,
1110,
11,
50000800,
1120,
12,
1120,
12,
50000803,
,
11,
1033,
#GOGOEND
#END
COURSE:Easy
LEVEL:1
BALLOON:7,5
SCOREINIT:1490
SCOREDIFF:1190
#START
,
,
#GOGOSTART
1,
1,
11,
50000800,
1,
1,
11,
7,
00000800,
#GOGOEND
,
0033,
,
0033,
,
,
1,
1,
1,
1,
11,
1,
10001005,
00000800,
1,
1,
1,
1,
11,
1,
10001005,
00000800,
1,
2,
1,
20000005,
00008005,
00000800,
3033,
,
#GOGOSTART
1,
1,
11,
50000800,
1,
1,
11,
50000800,
1,
1,
11,
1,
10000007,
00000800,
,
0033,
#GOGOEND
#END