Files
2023-06-15 19:15:39 -05:00

388 lines
15 KiB
Plaintext

//TJADB Project
TITLE:distance
TITLEJA:distance
SUBTITLE:--LONG SHOT PARTY/NARUTO-Shippuuden
SUBTITLEJA:「NARUTO疾風伝」主題曲
BPM:198.5
WAVE:distance.ogg
OFFSET:-2.302
DEMOSTART:52.150
COURSE:Oni
LEVEL:8
SCOREINIT:520
SCOREDIFF:130
#START
#GOGOSTART
100000200000100000200000100000200000100000200000,
100000200000100000200000100000200000100000200000,
100000200000100000200000100000200000100000200000,
100000100100100000100000200000200200200000200000,
100000200000100000200000100000200000100000200000,
100000200000100000200000100000200000100000200000,
100000200000100000200000100000200000100000200000,
100000100100100000200000000000200200200000200000,
100000200000100000200000100000200000100000200000,
100000200000100000200000100000200000100000200000,
100100100100100000100000000000300000300000300000,
000000400000000000400000000000400000000000400000,
100000200000100000200000100000200000100000200000,
100000000000200000000000100000100000100000100000,
200000000000100000000000100000100000200000000000,
200000000000100000100000100000100000100000100000,
#GOGOEND
200000000000100000200000000000200000100000000000,
100000100000100000100000100000100000100000100000,
200000000000100000200000000000200000100000000000,
100000100000100000100000100000100000100000100000,
200000000000100000200000000000200000100000000000,
100000100000100000100000100000100000100000100000,
200200200000100000000000200000000000100000000000,
200200200000100000200000100100100100100000000000,
200000000000200000100000100000100000200000100000,
100000100000200000100000100000100000200000100000,
100000000000200000100000100000100000200000100000,
100000100000200000100000100000100000200000100000,
200000000000100000200000000000200200100000100000,
200000000000100000200000000000200200100000100000,
100000200000100000200000100000200000100000200000,
300000000000400000000000300000300000000000400000,
000000000000200000000000100100100000100000200000,
000000200200100000100000100000100000200000100000,
100000100000200000100000100000100000200000100100,
100100100100100000000000200000000000200000000000,
100000000000200000100000100000100000200000100000,
100000100000200000100000100100100100100100100100,
200000000000100000100000200000200000100000000000,
200000000000100000100000200000200000100000000000,
100000100000200000000000300000300000000000400000,
000000000000000000000000000000000000000000000000,
#GOGOSTART
100000200000100000200000100000200000100000200000,
100000200000100000200000100000200000100000200000,
100000200000100000200000100000200000100000200000,
100000100100100000100000200000200200200000200000,
100000200000100000200000100000200000100000200000,
100000200000100000200000100000200000100000200000,
100000200000100000200000100000200000100000200000,
100000100100100000100000100100100100200000100000,
100000200200100000200000100000200200100000200000,
100000200200100000200000100000200200100000200000,
100100100100100000200000000000300000300000300000,
000000400000000000400000000000400000000000400000,
100000200200100000200000100000200200100000200000,
100000200200100000000000100000100000100000100000,
200000000000100000000000200000100000100000100000,
100000000000200000000000200000000000200000000000,
#GOGOEND
100000000000200000000000100000100000200000100000,
100000000000200000000000100000100000200000100000,
100000000000200000000000100000100000200000100000,
100000000000200000000000100000100000200000000000,
100000000000200000000000100000100000200000100000,
100000000000200000000000100000100000200000100000,
100000000000200000000000100000100000200000100000,
100000000000200000000000100100000100100000100000,
#GOGOSTART
100000200200100000200000100200200200100000200000,
100000200200100000200000100200200200100000200000,
100000000000100100100100200000000000300000300000,
000000400000000000400000000000400000000000400000,
100000200200100000200000100200200200100000200000,
100000000000200000100000100000100000100000100000,
400000000000000000000000000000000000000000000000,
#GOGOEND
#END
COURSE:Hard
LEVEL:6
SCOREINIT:650
SCOREDIFF:170
#START
#GOGOSTART
100000000000100000000000100000200000100000000000,
100000000000100000000000100000200000100000000000,
100000000000100000000000100000200000100000000000,
100000100000100000000000200000000000200000000000,
100000000000100000000000100000200000100000000000,
100000000000100000000000100000200000100000000000,
100000000000100000000000100000200000100000000000,
100000100000100000000000200000000000200000000000,
100000000000100000000000100000200000100000000000,
100000000000100000000000100000200000100000000000,
100000000000100000000000100000000000300000300000,
000000300000000000300000000000400000000000400000,
000000000000000000000000000000000000300000000000,
300000000000000000000000300000000000300000000000,
600000000000000000000000000000000000000000000000,
000000000000800000000000000000000000000000000000,
#GOGOEND
100000000000100000100000000000100000100000000000,
100000100000100000000000100000100000100000000000,
100000000000100000100000000000100000100000000000,
100000100000100000000000100000100000100000000000,
100000000000100000100000000000100000100000000000,
100000100000100000000000100000100000100000000000,
200000000000100000000000200000000000100000000000,
200000000000100000000000200000000000100000000000,
100000000000200000100000000000100000200000000000,
100000100000200000000000100000100000200000000000,
100000000000200000100000000000100000200000000000,
100000100000200000000000100000100000200000000000,
100000000000100000200000000000100000100000000000,
100000000000100000200000000000100000100000000000,
100000100000100000100000100000100000100000000000,
300000000000300000000000300000300000000000400000,
000000000000100000000000100000000000100000200000,
000000200000100000000000100000000000200000000000,
100000000000100000000000100000000000100000200000,
000000200000100000000000100000000000200000000000,
100000000000100000000000100000000000100000200000,
000000200000100000000000000000000000000000000000,
100000000000200000000000100000100000200000000000,
100000000000200000000000100000100000200000000000,
100000000000200000000000300000300000000000400000,
000000000000000000000000000000000000000000000000,
#GOGOSTART
100000000000100000000000100000200000100000000000,
100000000000100000000000100000200000100000000000,
100000000000100000000000100000200000100000000000,
100000100000100000000000200000000000200000000000,
100000000000100000000000100000200000100000000000,
100000000000100000000000100000200000100000000000,
100000000000100000000000100000200000100000000000,
100000100000100000000000200000000000200000000000,
100000000000100000000000100000200000100000000000,
100000000000100000000000100000200000100000000000,
100000000000100000000000100000000000300000300000,
000000300000000000300000000000400000000000400000,
000000000000000000000000000000000000300000000000,
300000000000000000000000300000000000300000000000,
600000000000000000000000000000000000000000000000,
000000000000800000000000000000000000000000000000,
#GOGOEND
100000000000200000000000100000100000200000000000,
100000000000200000000000100000100000200000000000,
100000000000200000000000100000100000200000000000,
100000100000100000000000200000000000200000000000,
100000000000200000000000100000100000200000000000,
100000000000200000000000100000100000200000000000,
100000000000200000000000100000100000200000000000,
100000000000200000000000200000000000200000000000,
#GOGOSTART
100000000000100000000000100000200000100000000000,
100000000000100000000000100000200000100000000000,
100000000000100000000000100000000000300000300000,
000000300000000000300000000000400000000000400000,
000000000000000000000000000000000000300000000000,
300000000000000000000000300000000000000000000000,
400000000000000000000000000000000000000000000000,
#GOGOEND
#END
COURSE:Normal
LEVEL:4
SCOREINIT:890
SCOREDIFF:250
#START
#GOGOSTART
100000000000100000000000100000000000100000000000,
100000000000100000000000100000000000000000000000,
100000000000000000000000100000000000000000000000,
100000000000000000000000000000000000000000000000,
100000000000100000000000100000000000100000000000,
100000000000100000000000100000000000000000000000,
100000000000000000000000100000000000000000000000,
100000000000000000000000000000000000000000000000,
100000000000100000000000100000000000100000000000,
100000000000100000000000100000000000000000000000,
100000000000000000000000200000000000000000000000,
500000000000000000000000000000000000000000000000,
000000000000000000800000000000000000300000000000,
000000000000000000000000000000000000000000000000,
400000000000000000000000000000000000000000000000,
000000000000000000000000000000000000000000000000,
#GOGOEND
100000000000100000000000000000000000100000000000,
100000000000100000000000000000000000000000000000,
100000000000100000000000000000000000100000000000,
100000000000100000000000000000000000000000000000,
100000000000100000000000000000000000100000000000,
100000000000100000000000000000000000000000000000,
200000000000000000000000200000000000000000000000,
200000000000000000000000200000000000000000000000,
100000000000200000000000000000000000200000000000,
100000000000200000000000100000000000000000000000,
100000000000200000000000000000000000200000000000,
100000000000200000000000100000000000000000000000,
100000000000000000200000000000000000000000000000,
100000000000000000200000000000000000000000000000,
100000000000100000000000100000000000100000000000,
300000000000300000000000000000000000000000000000,
000000000000100000000000100000000000100000000000,
000000000000100000000000100000000000100000000000,
000000000000100000000000100000000000100000000000,
000000000000100000000000100000000000100000000000,
000000000000100000000000100000000000100000000000,
000000000000100000000000100000000000100000000000,
000000000000200000000000200000000000200000000000,
000000000000200000000000200000000000200000000000,
500000000000000000000000000000000000800000000000,
000000000000000000000000000000000000000000000000,
#GOGOSTART
100000000000100000000000100000000000100000000000,
100000000000100000000000100000000000000000000000,
100000000000000000000000100000000000000000000000,
100000000000000000000000000000000000000000000000,
100000000000100000000000100000000000100000000000,
100000000000100000000000100000000000000000000000,
100000000000000000000000100000000000000000000000,
100000000000000000000000000000000000000000000000,
100000000000100000000000100000000000100000000000,
100000000000100000000000100000000000000000000000,
100000000000000000000000200000000000000000000000,
500000000000000000000000000000000000000000000000,
000000000000000000800000000000000000000000000000,
300000000000000000000000000000000000000000000000,
300000000000000000000000300000000000000000000000,
300000000000000000000000300000000000000000000000,
#GOGOEND
100000000000100000000000000000000000100000000000,
100000000000100000000000100000000000000000000000,
100000000000100000000000000000000000100000000000,
100000000000100000000000100000000000000000000000,
100000000000100000000000000000000000100000000000,
100000000000100000000000100000000000000000000000,
100000000000100000000000000000000000100000000000,
100000000000100000000000100000000000000000000000,
#GOGOSTART
100000000000100000000000100000000000100000000000,
100000000000100000000000100000000000000000000000,
100000000000000000000000200000000000000000000000,
300000000000000000000000300000000000000000000000,
300000000000000000000000000000000000000000000000,
300000000000000000000000300000000000000000000000,
400000000000000000000000000000000000000000000000,
#GOGOEND
#END
COURSE:Easy
LEVEL:3
SCOREINIT:920
SCOREDIFF:350
#START
#GOGOSTART
100000000000000000000000000000000000000000000000,
100000000000000000000000100000000000000000000000,
100000000000000000000000100000000000000000000000,
000000000000000000000000000000000000000000000000,
100000000000000000000000000000000000000000000000,
100000000000000000000000100000000000000000000000,
100000000000000000000000100000000000000000000000,
000000000000000000000000000000000000000000000000,
100000000000000000000000000000000000000000000000,
100000000000000000000000100000000000000000000000,
200000000000000000000000200000000000000000000000,
500000000000000000000000000000000000000000000000,
000000000000000000800000000000000000000000000000,
300000000000000000000000000000000000000000000000,
300000000000000000000000000000000000000000000000,
000000000000000000000000000000000000000000000000,
#GOGOEND
100000000000000000000000000000000000100000000000,
100000000000000000000000000000000000000000000000,
100000000000000000000000000000000000100000000000,
100000000000000000000000000000000000000000000000,
100000000000000000000000000000000000100000000000,
100000000000000000000000000000000000000000000000,
200000000000000000000000200000000000000000000000,
200000000000000000000000000000000000000000000000,
100000000000000000000000000000000000100000000000,
100000000000000000000000200000000000000000000000,
100000000000000000000000000000000000100000000000,
100000000000000000000000200000000000000000000000,
100000000000000000000000000000000000000000000000,
100000000000000000000000000000000000000000000000,
100000000000000000000000100000000000000000000000,
300000000000000000000000000000000000000000000000,
000000000000100000000000000000000000100000000000,
000000000000100000000000000000000000100000000000,
000000000000100000000000000000000000100000000000,
000000000000100000000000000000000000100000000000,
000000000000100000000000000000000000100000000000,
000000000000100000000000000000000000100000000000,
000000000000200000000000000000000000200000000000,
000000000000200000000000000000000000200000000000,
500000000000000000000000000000000000800000000000,
000000000000000000000000000000000000000000000000,
#GOGOSTART
100000000000000000000000000000000000000000000000,
100000000000000000000000100000000000000000000000,
100000000000000000000000100000000000000000000000,
000000000000000000000000000000000000000000000000,
100000000000000000000000000000000000000000000000,
100000000000000000000000100000000000000000000000,
100000000000000000000000100000000000000000000000,
000000000000000000000000000000000000000000000000,
100000000000000000000000000000000000000000000000,
100000000000000000000000100000000000000000000000,
200000000000000000000000200000000000000000000000,
500000000000000000000000000000000000000000000000,
000000000000000000800000000000000000000000000000,
300000000000000000000000000000000000000000000000,
100000000000000000000000100000000000000000000000,
200000000000000000000000200000000000000000000000,
#GOGOEND
100000000000000000000000000000000000100000000000,
100000000000000000000000000000000000000000000000,
100000000000000000000000000000000000100000000000,
100000000000000000000000000000000000000000000000,
100000000000000000000000000000000000100000000000,
100000000000000000000000000000000000000000000000,
100000000000000000000000000000000000100000000000,
100000000000000000000000200000000000000000000000,
#GOGOSTART
100000000000000000000000000000000000000000000000,
100000000000000000000000100000000000000000000000,
200000000000000000000000000000000000000000000000,
300000000000000000000000300000000000000000000000,
300000000000000000000000000000000000000000000000,
300000000000000000000000300000000000000000000000,
300000000000000000000000000000000000000000000000,
#END