forked from ESE/ESE
343 lines
14 KiB
Plaintext
343 lines
14 KiB
Plaintext
//TJADB Project
|
|
TITLE:ideal white
|
|
TITLEJA:ideal white
|
|
SUBTITLE:--Mashiro Ayano/Fate/stay night [Unlimited Blade Works]
|
|
SUBTITLEJA:「Fate/stay night [Unlimited Blade Works]」より
|
|
BPM:180
|
|
WAVE:ideal white.ogg
|
|
OFFSET:-1.413
|
|
DEMOSTART:49.232
|
|
|
|
COURSE:Oni
|
|
LEVEL:7
|
|
SCOREINIT:590
|
|
SCOREDIFF:163
|
|
|
|
|
|
#START
|
|
|
|
|
|
100100200000100000000000100000000000100000000000,
|
|
100000000000100000000000100100200000100000000000,
|
|
100100200000100000000000100000000000100000000000,
|
|
100100200000100000000000100100200000100000000000,
|
|
100100200000100000000000100000000000100000000000,
|
|
100000000000100000000000100100200000100200200000,
|
|
300000300000000000300000000000300000000000300000,
|
|
000000300000000000300000000000100100200000000000,
|
|
200000000000200000000000200000000000200000200000,
|
|
200000000000200000000000200000000000200200200000,
|
|
200000000000200000000000200000000000200000200000,
|
|
200000000000200000000000200000000000200200200000,
|
|
200000000000200000000000200000000000200200200000,
|
|
200000000000200200200000200000000000200000000000,
|
|
200200200200200000200000200200200200200000000000,
|
|
200200100000100000200000100100200000200000100000,
|
|
100000100100200000000000200000000000100000100100,
|
|
200000000000200000000000200000100000200000200000,
|
|
100000100100200000000000200000000000100000100100,
|
|
200000000000200000000000200000000000100000200000,
|
|
100000100100200000000000200000000000100000100100,
|
|
200000000000200000000000200000000000100100100000,
|
|
100200100000100000100000100200100000100000100000,
|
|
100200100000100000100200100000100000100200100000,
|
|
100000000000000000100000200000100100100000100100,
|
|
100000100100100000100000200000000000200000000000,
|
|
100000000000000000100000200000100100100000100100,
|
|
100000100100200000100000200000000000200000000000,
|
|
100000000000000000100000200000100100100000100100,
|
|
200000100100200000100000200000000000200000000000,
|
|
100000000000000000100000200000100100100000100100,
|
|
100000100100100100100000200000200200200200200000,
|
|
100000200000200200100000200000200000100100200000,
|
|
200000100000200200200000100000200000200100100000,
|
|
300000300000000000300000300000000000300000300000,
|
|
000000000000000000000000000000000000000000000000,
|
|
|
|
#GOGOSTART
|
|
100000000000200000100100100000100000200000100000,
|
|
000000100000200000100100100000100000200000000000,
|
|
100000000000200000100100100000100000200000100100,
|
|
100000100100100000100100100000100000200000000000,
|
|
100000000000200000100100100000100000200000100000,
|
|
000000100000200000100100100000100000200000000000,
|
|
100200100000200000100000100000000000200000000000,
|
|
100200100000200000100000100000000000200200200200,
|
|
100100100000200000100000000000100000200000000000,
|
|
100100100000200000100000000000100000200000000000,
|
|
100100100000200000100000000000100000200000100000,
|
|
200000100000200200100000200000100000200200100000,
|
|
100000000000200000100100100000100000200000100000,
|
|
000000100000200000100100100000100000200000000000,
|
|
100000100100200000100000100100100000200000500000,
|
|
000000000000000000000000000000000008000000000000,
|
|
100000000000200000000000100000100000200000100000,
|
|
000000100100200000100100100000100000200000000000,
|
|
100000000000200000100000000000100000200000100000,
|
|
000000100100200000100100100000100000200000000000,
|
|
100000000000200000000000100100100000200000100100,
|
|
100000100000200000100000200000100000200000000000,
|
|
100100100000100000200000200000200000100000200000,
|
|
100100100000200000100100100000200000100000200000,
|
|
100100100000100000200200200000200000100100100000,
|
|
100000200200200000200000100000100100100000000000,
|
|
100000000000200000000000100000100000200000100000,
|
|
000000100200100000100200100000100000200000000000,
|
|
100200100000100000100200100000100000100200100000,
|
|
100000100200100000100200100000100000100100100100,
|
|
|
|
#GOGOEND
|
|
|
|
|
|
#END
|
|
|
|
|
|
COURSE:Hard
|
|
LEVEL:6
|
|
BALLOON:18
|
|
SCOREINIT:620
|
|
SCOREDIFF:175
|
|
|
|
|
|
#START
|
|
|
|
|
|
100000100000100000000000100000000000100000000000,
|
|
100000000000100000000000100000000000100000000000,
|
|
100000100000100000000000100000000000100000000000,
|
|
100000000000100000000000100000000000100000000000,
|
|
700000000000000000000000000000000000000000000000,
|
|
000000000000000000000000000000800000000000000000,
|
|
300000300000000000300000000000300000000000300000,
|
|
000000300000000000300000000000100000200000000000,
|
|
200000000000200000000000200000000000200000200000,
|
|
200000000000200000000000200000000000200200200000,
|
|
200000000000200000000000200000000000200000200000,
|
|
200000000000200000000000200000000000200200200000,
|
|
200000000000200000000000200000000000200200200000,
|
|
200000000000200200200000200000000000200000000000,
|
|
200000000000000000200000200000000000000000000000,
|
|
100000000000100000000000100000000000100100100000,
|
|
100000100000200000000000200000000000100000100000,
|
|
200000000000200000000000200000000000200000000000,
|
|
100000100000200000000000200000000000100000100000,
|
|
200000000000200000000000200000000000200000000000,
|
|
100000100000200000000000200000000000100000100000,
|
|
200000000000200000000000200000000000100100100000,
|
|
100000100000100000100000100000100000100000100000,
|
|
100100100000100000100000100000100000100100100000,
|
|
100000000000000000100000200000100000100000000000,
|
|
100100100000100000000000200000000000200000000000,
|
|
100000000000000000100000200000100000100000000000,
|
|
100100100000100000000000200000000000200000000000,
|
|
100000000000000000100000200000100000100000000000,
|
|
100100100000100000000000200000000000200000000000,
|
|
100000000000000000100000200000100000100000000000,
|
|
100100100000100000000000200000200200200000000000,
|
|
100000000000200000000000100000100000200000000000,
|
|
100000100000200000000000100100100000200000000000,
|
|
300000300000000000300000300000000000300000300000,
|
|
000000000000000000000000000000000000000000000000,
|
|
#GOGOSTART
|
|
100000000000200000100100100000100000000000100000,
|
|
000000100000000000100000000000200200200000000000,
|
|
100000000000200000100100100000100000000000100000,
|
|
000000100000000000100000000000200200200000000000,
|
|
100000000000200000100100100000100000000000100000,
|
|
000000100000000000100000000000200200200000000000,
|
|
100100100000200000100000100000000000200000000000,
|
|
100100100000200000100000100000000000200000000000,
|
|
100000000000100100100000000000100000200000000000,
|
|
100000000000100100100000000000100000200000000000,
|
|
100000000000100100100000000000100000200000000000,
|
|
100100100000100000000000200200200000200000000000,
|
|
100000100000200000000000100000100000200000000000,
|
|
100000100000200000000000100000100000200000000000,
|
|
100000100000200000100000100000100000200000100000,
|
|
500000000000000000000000000000000800000000000000,
|
|
100000100000200000000000100000100000200000100000,
|
|
000000100000000000100000000000100000200000000000,
|
|
100100100000200000000000100000100000200000100000,
|
|
000000100000000000100100100000100000200000000000,
|
|
100000000000200000000000100000100000200000100000,
|
|
000000100000200000100000200000100000200000000000,
|
|
100000100000100000200000200000200000100000200000,
|
|
100000100000200000100000100000200000100000200000,
|
|
300000000000000000300000000000000000300000000000,
|
|
000000300000000000000000300000100100100000000000,
|
|
100000000000200000000000100000100000200000100000,
|
|
000000100100100000100100100000100000200000000000,
|
|
300000000000000000300000000000000000300000000000,
|
|
000000100000100000100000100100100000100100100000,
|
|
#GOGOEND
|
|
|
|
|
|
#END
|
|
|
|
|
|
COURSE:Normal
|
|
LEVEL:5
|
|
BALLOON:8,8,5
|
|
SCOREINIT:1030
|
|
SCOREDIFF:388
|
|
|
|
|
|
#START
|
|
|
|
|
|
700000000000000000000000000000000000000000800000,
|
|
000000000000000000000000300000000000000000000000,
|
|
300000000000000000000000000000000000000000000000,
|
|
300000000000000000000000300000000000000000000000,
|
|
700000000000000000000000000000000000000000800000,
|
|
000000000000000000000000000000000000000000000000,
|
|
300000000000000000300000000000300000000000300000,
|
|
000000300000000000300000000000000000000000000000,
|
|
100000000000000000000000000000000000100000000000,
|
|
100000000000100000000000100000000000000000000000,
|
|
100000000000000000000000000000000000200000000000,
|
|
200000000000200000000000200000000000000000000000,
|
|
100000000000000000000000000000000000100000000000,
|
|
100000000000100000000000100000000000100000000000,
|
|
500000000000000000000000000000000000000000000000,
|
|
800000000000000000000000000000000000000000000000,
|
|
100000100000000000000000000000000000100000100000,
|
|
000000000000000000000000000000000000000000000000,
|
|
100000100000000000000000000000000000100000100000,
|
|
000000000000000000000000000000000000000000000000,
|
|
100000100000000000000000000000000000100000100000,
|
|
000000000000000000000000000000000000000000000000,
|
|
100000000000000000000000500000000000000000000000,
|
|
000000000000000000000000000000800000000000000000,
|
|
100000000000000000100000100000000000000000000000,
|
|
100000000000100000000000100000000000000000000000,
|
|
100000000000000000100000100000000000000000000000,
|
|
100000000000100000000000100000000000000000000000,
|
|
100000000000000000100000100000000000000000000000,
|
|
100000000000100000000000100000000000000000000000,
|
|
100000000000000000100000100000000000000000000000,
|
|
100000000000100000000000200000000000200000000000,
|
|
100000000000100000000000100000000000100000000000,
|
|
200000000000200000000000200000000000200000000000,
|
|
300000000000000000300000000000000000300000000000,
|
|
000000000000000000000000000000000000000000000000,
|
|
#GOGOSTART
|
|
100000000000100000000000100000000000000000200000,
|
|
000000200000000000200000000000000000000000000000,
|
|
100000000000100000000000100000000000000000200000,
|
|
000000200000000000200000000000000000000000000000,
|
|
100000000000100000000000100000000000000000200000,
|
|
000000200000000000200000000000000000000000000000,
|
|
100000000000000000100000100000000000000000000000,
|
|
200000000000000000200000200000000000000000000000,
|
|
100000000000100000100000000000000000200000000000,
|
|
100000000000100000100000000000000000200000000000,
|
|
100000000000100000100000000000000000200000000000,
|
|
100000000000100000000000100000000000000000000000,
|
|
100000000000200000000000100000000000000000000000,
|
|
100000000000200000000000100000000000000000000000,
|
|
100000000000200000000000100000000000000000000000,
|
|
700000000000000000000000000000800000000000000000,
|
|
100000000000100000000000100000000000000000100000,
|
|
000000100000000000100000000000000000000000000000,
|
|
200000000000200000000000200000000000000000500000,
|
|
000000000000000000000000000000800000000000000000,
|
|
100000000000100000000000100000000000000000100000,
|
|
000000000000100000000000100000000000000000000000,
|
|
500000000000000000000000000000000000000000800000,
|
|
000000000000000000100000000000000000100000000000,
|
|
300000000000000000300000000000000000300000000000,
|
|
000000300000000000000000300000000000000000000000,
|
|
100000000000100000000000100000000000100000000000,
|
|
200000000000200000000000200000000000200000000000,
|
|
300000000000000000300000000000000000300000000000,
|
|
000000600000000000000000000000000000000000800000,
|
|
#GOGOEND
|
|
|
|
|
|
#END
|
|
|
|
|
|
COURSE:Easy
|
|
LEVEL:4
|
|
BALLOON:5,5,2,2,3,3
|
|
SCOREINIT:890
|
|
SCOREDIFF:408
|
|
|
|
|
|
#START
|
|
|
|
|
|
700000000000000000000000000000000000000000800000,
|
|
000000000000000000000000000000000000000000000000,
|
|
300000000000000000000000000000000000000000000000,
|
|
300000000000000000000000000000000000000000000000,
|
|
700000000000000000000000000000000000000000800000,
|
|
000000000000000000000000000000000000000000000000,
|
|
300000000000000000300000000000000000000000600000,
|
|
000000000000000000000000000000000000000000800000,
|
|
000000000000000000000000000000000000100000000000,
|
|
100000000000000000000000100000000000000000000000,
|
|
100000000000000000000000000000000000100000000000,
|
|
100000000000000000000000100000000000000000000000,
|
|
100000000000000000000000000000000000100000000000,
|
|
100000000000000000000000100000000000000000000000,
|
|
100000000000000000000000100000000000000000000000,
|
|
200000000000000000000000200000000000000000000000,
|
|
300000000000000000000000000000000000300000000000,
|
|
000000000000000000000000000000000000000000000000,
|
|
300000000000000000000000000000000000300000000000,
|
|
000000000000000000000000000000000000000000000000,
|
|
300000000000000000000000000000000000300000000000,
|
|
000000000000000000000000000000000000000000000000,
|
|
100000000000000000000000500000000000000000000000,
|
|
000000000000000000000000800000000000000000000000,
|
|
100000000000000000000000100000000000000000000000,
|
|
100000000000100000000000100000000000000000000000,
|
|
100000000000000000000000100000000000000000000000,
|
|
100000000000100000000000100000000000000000000000,
|
|
100000000000000000000000100000000000000000000000,
|
|
100000000000100000000000100000000000000000000000,
|
|
100000000000000000000000100000000000000000000000,
|
|
100000000000100000000000100000000000100000000000,
|
|
100000000000000000000000100000000000000000000000,
|
|
200000000000000000000000200000000000000000000000,
|
|
300000000000000000300000000000000000300000000000,
|
|
000000000000000000000000000000000000000000000000,
|
|
#GOGOSTART
|
|
100000000000100000000000100000000000000000000000,
|
|
200000000000200000000000200000000000000000000000,
|
|
100000000000100000000000100000000000000000500000,
|
|
000000000000000000000000800000000000000000000000,
|
|
100000000000100000000000100000000000000000000000,
|
|
200000000000200000000000200000000000000000000000,
|
|
100000000000000000000000100000000000000000000000,
|
|
200000000000000000000000200000000000000000000000,
|
|
700000000000000800000000000000000000000000000000,
|
|
700000000000000800000000000000000000000000000000,
|
|
700000000000000800000000000000000000000000000000,
|
|
700000000000000800000000000000000000000000000000,
|
|
100000000000000000000000100000000000000000000000,
|
|
100000000000100000000000100000000000000000000000,
|
|
500000000000000000000000000000000000000000000000,
|
|
000000000000000000000000000000000000800000000000,
|
|
000000000000100000000000100000000000000000000000,
|
|
100000000000100000000000100000000000100000000000,
|
|
100000000000100000000000100000000000000000000000,
|
|
500000000000000000000000000000800000000000000000,
|
|
000000000000100000000000100000000000100000000000,
|
|
100000000000100000000000100000000000100000000000,
|
|
500000000000000000000000000000000000000000800000,
|
|
000000000000000000100000000000000000000000000000,
|
|
300000000000000000300000000000000000300000000000,
|
|
000000300000000000000000300000000000000000000000,
|
|
600000000000000000000000000000800000000000000000,
|
|
000000000000000000000000000000000000000000000000,
|
|
300000000000000000300000000000000000300000000000,
|
|
000000600000000000000000000000000000000000000008,
|
|
#GOGOEND
|
|
|
|
|
|
#END
|
|
|