Files
ESE-ja-fix/01 Pop/Ai o Komete Hanataba o/Ai o Komete Hanataba o.tja
T
2023-06-15 19:15:39 -05:00

223 lines
7.6 KiB
Plaintext

//TJADB Project
TITLE:Ai o Komete Hanataba o
TITLEJA:愛をこめて花束を
SUBTITLE:--Superfly/Ejison no Haha
BPM:81
WAVE:Ai o Komete Hanataba o.ogg
OFFSET:-6.030
DEMOSTART:84.562
COURSE:Oni
LEVEL:5
SCOREINIT:1090
SCOREDIFF:343
#START
100000000100000000100000000000100000100000000000,
100000000100000100100100100000100000100000100000,
#MEASURE 2/4
100100100100200000000000,
#MEASURE 4/4
100000000000200000000000100000100000200000100000,
100000100000200000100000100000100000200000000000,
100000000000200000000000100000100000200000100000,
100000200000100000200000100000100000200000000000,
100000000000200000100000100000100000200000100000,
100000100000200000100000100000100000200000000000,
100000200000100000200000100000200000100000200000,
100000000000100000100100100000300000100100100000,
100000000000200000000000100000100000200000100000,
100000100000200000100000100000100000200000000000,
100000000000200000000000100000100000200000100000,
100000200000100000200000100000100000200000000000,
100000000000200000000000100000100000200000100000,
100000100000200000100000100000100000200000100000,
100000200000100000200000100000200000100000200000,
500000000000000000000000000000000008000000000000,
100000100000200000100000200000100000200000000000,
100000100000200000100000200000100000200000000000,
100000100000200000100000200000100000200000000000,
100000100000100000100100100000100000100100100000,
100100100000100000200000100000200000200000000000,
100100100000100000200000100000200000200000000000,
100100100000100000200000100000200000200000000000,
100100100000100100100000100100100000100000000000,
#GOGOSTART
100100100000100000100000100100200200100100000000,
100100100000100000100000100100200200100100000000,
100000100000200000100100100000100000200000100100,
100000200000100000200000100000100000200100100000,
100100100000100000100000100100200200100100000000,
100100100000100000100000100100200200100100000000,
400000000000400000000000100100100000100000100000,
500000000000000000000000000000000008000000000000,
#GOGOEND
#END
COURSE:Hard
LEVEL:4
SCOREINIT:1000
SCOREDIFF:270
#START
100000000100000000100000000000100000100000000000,
100000000100000100100100100000000000000000000000,
#MEASURE 2/4
000000000000000000000000,
#MEASURE 4/4
100000000000200000000000100000100000200000000000,
100000000000200000000000100000100000200000000000,
100000000000200000000000100000100000200000000000,
100000200000100000200000100000100000200000000000,
100000000000200000000000100000100000200000000000,
100000000000200000000000100000100000200000000000,
100000200000100000200000100000200000100000200000,
100000000000100000000000100000300000000000000000,
100000000000200000000000100000100000200000000000,
100000000000200000000000100000100000200000000000,
100000000000200000000000100000100000200000000000,
100000200000100000200000100000100000200000000000,
100000000000200000000000100000100000200000000000,
100000000000200000000000100000100000200000000000,
100000200000100000200000100000200000100000200000,
500000000000000000000000000000000800000000000000,
100000100000200000100000200000100000200000000000,
100000100000200000100000200000100000200000000000,
100000100000200000100000200000100000200000000000,
100000100000100000100100100000100000100000000000,
100100100000100000000000100000200000200000000000,
100100100000100000000000100000200000200000000000,
100100100000100000000000100000200000200000000000,
100100100000100100100000100100100000100000000000,
#GOGOSTART
100100100000100000100000300000000000300000000000,
100100100000100000100000300000000000300000000000,
100000100000200000000000100000100000200000000000,
100000200000100000200000100000100000200000000000,
100100100000100000100000300000000000300000000000,
100100100000100000100000300000000000300000000000,
400000000000400000000000100000100000100000100000,
500000000000000000000000000000000800000000000000,
#GOGOEND
#END
COURSE:Normal
LEVEL:2
SCOREINIT:1220
SCOREDIFF:686
#START
100000000000100000100000000000000000000000000000,
100000000000100000100000000000000000000000000000,
#MEASURE 2/4
000000000000000000000000,
#MEASURE 4/4
100000000000000000000000100000000000200000000000,
100000000000000000000000100000000000200000000000,
100000000000000000000000100000000000200000000000,
100000000000100000000000100000000000000000000000,
100000000000000000000000100000000000200000000000,
100000000000000000000000100000000000200000000000,
100000000000100000000000100000000000100000000000,
100000000000000000000000000000000000000000000000,
100000000000000000000000100000000000200000000000,
100000000000000000000000100000000000200000000000,
100000000000000000000000100000000000200000000000,
100000000000100000000000100000000000000000000000,
100000000000000000000000100000000000200000000000,
100000000000000000000000100000000000200000000000,
100000000000100000000000100000000000100000000000,
500000000000000000000000000000800000000000000000,
100000000000000000000000200000000000000000000000,
100000000000000000000000200000000000000000000000,
100000000000000000000000200000000000000000000000,
100000000000100000000000100000000000000000000000,
100000100000100000000000100000000000000000000000,
100000100000100000000000100000000000000000000000,
100000100000100000000000100000000000000000000000,
100000100000100000000000100000000000100000000000,
#GOGOSTART
100000100000100000000000300000000000300000000000,
100000100000100000000000300000000000300000000000,
100000000000200000000000100000000000200000000000,
100000000000100000000000100000000000000000000000,
100000100000100000000000300000000000300000000000,
100000100000100000000000300000000000300000000000,
300000000000000000000000300000000000000000000000,
500000000000000000000000000000800000000000000000,
#GOGOEND
#END
COURSE:Easy
LEVEL:2
SCOREINIT:1100
SCOREDIFF:825
#START
100000000000000000000000000000000000000000000000,
100000000000000000000000000000000000000000000000,
#MEASURE 2/4
000000000000000000000000,
#MEASURE 4/4
100000000000000000000000100000000000000000000000,
100000000000000000000000100000000000100000000000,
100000000000000000000000100000000000000000000000,
100000000000000000000000100000000000100000000000,
200000000000000000000000200000000000000000000000,
200000000000000000000000200000000000200000000000,
200000000000000000000000200000000000000000000000,
200000000000000000000000000000000000000000000000,
100000000000000000000000100000000000000000000000,
100000000000000000000000100000000000100000000000,
100000000000000000000000100000000000000000000000,
100000000000000000000000100000000000100000000000,
200000000000000000000000200000000000000000000000,
200000000000000000000000200000000000200000000000,
200000000000000000000000200000000000000000000000,
500000000000000000000000000000800000000000000000,
100000000000000000000000100000000000000000000000,
100000000000100000000000100000000000000000000000,
100000000000000000000000100000000000000000000000,
100000000000100000000000100000000000000000000000,
100000000000000000000000100000000000000000000000,
100000000000000000000000100000000000000000000000,
100000000000100000000000100000000000000000000000,
100000000000100000000000100000000000000000000000,
#GOGOSTART
100000000000100000000000300000000000300000000000,
100000000000100000000000300000000000300000000000,
100000000000000000000000100000000000000000000000,
100000000000100000000000100000000000000000000000,
100000000000100000000000300000000000300000000000,
100000000000100000000000300000000000300000000000,
300000000000000000000000300000000000000000000000,
500000000000000000000000000000800000000000000000,
#GOGOEND
#END