Files
ESE-ja-fix/01 Pop/Gai Bian Zi Ji/Gai Bian Zi Ji.tja
T
2023-06-15 19:15:39 -05:00

266 lines
8.6 KiB
Plaintext

//TJADB Project
TITLE:Gai Bian Zi Ji
TITLEJA:改變自己
SUBTITLE:--Wang Leehom
SUBTITLEJA:王力宏
BPM:104.22
WAVE:Gai Bian Zi Ji.ogg
OFFSET:-2.570
DEMOSTART:68.598
COURSE:Oni
LEVEL:6
SCOREINIT:1150
SCOREDIFF:320
#START
100000100000200000100000000000100000200000000000,
#BPMCHANGE 104.78
100000000000100000200000000000400000400000000000,
#BPMCHANGE 104.35
100000100000200000100000000000100000200000000000,
100000000000200000100000000000300000400000000000,
#BPMCHANGE 104.65
100000100000200000100000200000000000200000000000,
100000100000200000100000200000000000200000200000,
#BPMCHANGE 104.99
100000100000200000100000200000200000200000000000,
#BPMCHANGE 104.01
100000100000100000100000000000100000100200100200,
#BPMCHANGE 104.5
100000100000200000100000000000100000200000000000,
100000100000200000100000200000000000200000200000,
100000000000200000100000000000100000200000000000,
100000100000200000100000000000100000100200100200,
100000100000200000100000000000100000200000000000,
100000100000200000100000000000100000200000200000,
#BPMCHANGE 104.96
100000000000000000000000000000000000000000000000,
#BPMCHANGE 104.04
100000100000100000100000000000100000100200100200,
#BPMCHANGE 104.5
100000100000200000100000000000100000200000000000,
100000100000200000100000200000000000200000200000,
100000000000200000100000000000100000200000000000,
100000100000200000100000000000100000100200100200,
100000100000200000100000000000100000200000000000,
100000100000200000100000000000100000200000200000,
100000000000000000000000000000000000000000000000,
100000100000100000100000000000100000100200100200,
100000000000200000100000000000100000200000000000,
100000000000200000100000000000100000200000200000,
100000000000200000100000000000100000200000000000,
300000300000300000300000300000000000200000000000,
400000400000400000400000400000100000100200100000,
#GOGOSTART
100000100000200000100000100000100000200000100000,
000000100000200000100000000000100000200000200000,
100000100000200000100000100000100000200000100000,
000000100000200000100000200200100000200200100000,
100000100000200000100000100000100000200000100000,
000000100000200000100000000000100000200000200000,
100000100000200000100000100000100000200000000000,
300000000000000000000000000000000000000000000000,
#GOGOEND
#END
COURSE:Hard
LEVEL:4
SCOREINIT:1070
SCOREDIFF:290
#START
100000000000200000100000000000100000200000000000,
#BPMCHANGE 104.78
100000000000100000200000000000400000400000000000,
#BPMCHANGE 104.35
100000000000200000100000000000100000200000000000,
100000000000200000100000000000300000300000000000,
#BPMCHANGE 104.65
100000000000200000100000200000000000200000000000,
100000000000200000100000200000000000200000200000,
#BPMCHANGE 104.99
100000000000000000000000000000000000000000000000,
#BPMCHANGE 104.01
100000100000100000100000000000100000100000100000,
#BPMCHANGE 104.5
100000000000200000100000000000100000200000000000,
100000000000200000100000200000000000200000200000,
100000000000200000100000000000100000200000000000,
100000000000200000100000000000100000100000100000,
100000000000200000100000000000100000200000000000,
100000000000200000100000000000100000200000200000,
#BPMCHANGE 104.96
100000000000000000000000000000000000000000000000,
#BPMCHANGE 104.04
100000100000100000100000000000100000100000100000,
#BPMCHANGE 104.5
100000000000200000100000000000100000200000000000,
100000000000200000100000200000000000200000200000,
100000000000200000100000000000100000200000000000,
100000000000200000100000000000100000100000100000,
100000000000200000100000000000100000200000000000,
100000000000200000100000000000100000200000200000,
100000000000000000000000000000000000000000000000,
100000100000100000100000000000100000100000100000,
100000000000200000100000000000100000200000000000,
100000000000200000100000000000100000200000000000,
100000000000200000100000000000100000200000000000,
300000300000300000300000300000000000000000000000,
400000400000400000400000400000000000000000000000,
#GOGOSTART
100000100000200000000000100000100000200000000000,
100000100000200000000000100000100000200000200000,
100000100000200000000000100000100000200000000000,
100000100000200000000000200200200000200200200000,
100000100000200000000000100000100000200000000000,
100000100000200000100000000000100000200000200000,
100000100000200000000000100000100000200000000000,
300000000000000000000000000000000000000000000000,
#GOGOEND
#END
COURSE:Normal
LEVEL:4
SCOREINIT:1360
SCOREDIFF:510
#START
100000000000200000000000000000000000200000000000,
#BPMCHANGE 104.78
100000000000200000000000000000000000400000000000,
#BPMCHANGE 104.35
100000000000200000000000000000000000200000000000,
100000000000200000000000000000000000300000000000,
#BPMCHANGE 104.65
100000000000200000000000200000000000200000000000,
100000000000200000000000200000000000200000000000,
#BPMCHANGE 104.99
100000000000000000000000000000000000000000000000,
#BPMCHANGE 104.01
100000100000100000100000000000000000000000000000,
#BPMCHANGE 104.5
100000000000200000000000000000000000200000000000,
100000000000200000000000000000000000200000000000,
100000000000200000000000000000000000200000000000,
100000000000200000000000100000000000000000000000,
100000000000200000000000000000000000200000000000,
100000000000200000000000000000000000200000000000,
#BPMCHANGE 104.96
100000000000000000000000000000000000000000000000,
#BPMCHANGE 104.04
100000100000100000100000000000000000000000000000,
#BPMCHANGE 104.5
100000000000200000000000000000000000200000000000,
100000000000200000000000200000000000200000000000,
100000000000200000000000000000000000200000000000,
100000000000200000000000200000000000200000000000,
100000000000200000000000000000000000200000000000,
100000000000200000000000200000000000200000000000,
100000000000000000000000000000000000000000000000,
100000100000100000100000000000000000000000000000,
100000000000100000000000000000000000100000000000,
100000000000100000000000000000000000100000000000,
100000000000100000000000100000000000100000000000,
300000000000300000000000300000000000000000000000,
400000000000400000000000400000000000000000000000,
#GOGOSTART
100000000000200000000000100000000000200000000000,
100000000000200000000000100000000000000000000000,
100000000000200000000000100000000000200000000000,
100000000000200000000000200000000000000000000000,
100000000000200000000000100000000000200000000000,
100000000000200000000000100000000000000000000000,
100000000000200000000000100000000000200000000000,
300000000000000000000000000000000000000000000000,
#GOGOEND
#END
COURSE:Easy
LEVEL:3
SCOREINIT:970
SCOREDIFF:250
#START
100000000000100000000000000000000000000000000000,
#BPMCHANGE 104.78
100000000000100000000000000000000000400000000000,
#BPMCHANGE 104.35
100000000000100000000000000000000000000000000000,
100000000000100000000000000000000000300000000000,
#BPMCHANGE 104.65
100000000000100000000000000000000000000000000000,
100000000000100000000000000000000000000000000000,
#BPMCHANGE 104.99
100000000000000000000000100000000000000000000000,
#BPMCHANGE 104.01
300000000000300000000000000000000000000000000000,
#BPMCHANGE 104.5
100000000000100000000000000000000000100000000000,
100000000000100000000000000000000000200000000000,
100000000000100000000000000000000000100000000000,
100000000000100000000000000000000000200000000000,
100000000000100000000000000000000000100000000000,
100000000000100000000000000000000000200000000000,
#BPMCHANGE 104.96
100000000000000000000000000000000000000000000000,
#BPMCHANGE 104.04
300000000000300000000000000000000000000000000000,
#BPMCHANGE 104.5
100000000000100000000000000000000000100000000000,
100000000000100000000000000000000000200000000000,
100000000000100000000000000000000000100000000000,
100000000000100000000000000000000000200000000000,
100000000000100000000000000000000000100000000000,
100000000000100000000000000000000000200000000000,
100000000000000000000000000000000000000000000000,
300000000000300000000000000000000000000000000000,
100000000000100000000000000000000000100000000000,
100000000000100000000000000000000000100000000000,
100000000000000000000000100000000000000000000000,
300000000000300000000000300000000000000000000000,
400000000000400000000000400000000000000000000000,
#GOGOSTART
100000000000100000000000100000000000100000000000,
100000000000000000000000100000000000000000000000,
200000000000200000000000200000000000200000000000,
200000000000000000000000200000000000000000000000,
100000000000100000000000100000000000100000000000,
100000000000000000000000100000000000000000000000,
200000000000200000000000200000000000200000000000,
300000000000000000000000000000000000000000000000,
#GOGOEND
#END