forked from ESE/ESE
503 lines
19 KiB
Plaintext
503 lines
19 KiB
Plaintext
//TJADB Project
|
|
TITLE:Into the Array Theme
|
|
TITLEJA:入陣曲
|
|
SUBTITLE:--Mayday
|
|
BPM:120
|
|
WAVE:Into the Array Theme.ogg
|
|
OFFSET:-8.129
|
|
DEMOSTART:52.483
|
|
|
|
COURSE:Oni
|
|
LEVEL:7
|
|
SCOREINIT:760
|
|
SCOREDIFF:213
|
|
|
|
|
|
#START
|
|
|
|
|
|
300000000000100000300000000000000000100000200000,
|
|
300000000000100000300000000000000000100000200000,
|
|
300000000000100000300000000000000000100000200000,
|
|
300000000000100000300000000000000000100000000000,
|
|
100000000200100000100000000200100000100000100200,
|
|
#MEASURE 3/4
|
|
100000000200100000100000000000000000,
|
|
#MEASURE 2/4
|
|
#GOGOSTART
|
|
#BPMCHANGE 240
|
|
100000000000200000000000,
|
|
#MEASURE 4/4
|
|
100000000000200000100000000000000000100000000000,
|
|
000000000000200000000000100000000000200000000000,
|
|
100000000000200000100000000000000000100000000000,
|
|
000000000000200000000000100000000000200000000000,
|
|
100000000000200000100000000000000000100000000000,
|
|
000000000000200000000000100000000000200000000000,
|
|
500000000000000000000000000000000000000000000008,
|
|
000000000000000000000000000000000000000000000000,
|
|
#GOGOEND
|
|
#BPMCHANGE 120
|
|
100000000100000000100000000000000000100000200000,
|
|
200000000200000000100000000000000000100000000000,
|
|
100000000100000000100000000000200000000000500000,
|
|
000000000000000000000008000000000000000000000000,
|
|
200000000200000000200000000000000000200000100000,
|
|
200000000200000000200000000000000000000000100000,
|
|
200000000200000000200000000000200000000000500000,
|
|
000000000000000000000008000000000000000000000000,
|
|
100000000100000000100000000100100000100000100000,
|
|
200000000200000000200000000200200000200000200000,
|
|
100000000100000000100000000100100000100000100000,
|
|
500000000000000000000000000000000000000000000008,
|
|
#MEASURE 1/4
|
|
000000000000,
|
|
#GOGOSTART
|
|
#MEASURE 2/4
|
|
#BPMCHANGE 240
|
|
100000000000100000300000,
|
|
#MEASURE 4/4
|
|
000000000000200000000000100000000000100000300000,
|
|
000000000000200000000000100000000000100000000000,
|
|
100000000000200000000000100000100000200000300000,
|
|
000000000000200000000000100000000000200000400000,
|
|
000000000000100000000000100000000000200000400000,
|
|
000000000000100000000000100000000000200000000000,
|
|
500000000000000000000000000000000000000000000000,
|
|
000000000008000000000000100000000000100000300000,
|
|
000000000000200000000000100000000000100000300000,
|
|
000000000000200000000000100000000000200000000000,
|
|
200000000000200000000000200000200000000000000000,
|
|
200000000000200000000000100000000000100000300000,
|
|
000000000000200000000000100000000000100000000000,
|
|
100000000000200000000000200000000000000000000000,
|
|
#GOGOEND
|
|
#BPMCHANGE 120
|
|
100000000200000000100000200000000100000000200000,
|
|
100000000200000000100000200000100000200200000000,
|
|
300000000400000000300000300000000400000000300000,
|
|
300000000400000000300000400000100000200000000000,
|
|
200000000100000000200000100000000200000000100000,
|
|
200000000100000000200000100000100000200200000000,
|
|
400000000300000000400000400000000300000000400000,
|
|
300000000400000000300000600000000000000000000000,
|
|
000000000000000000000000000000000000000000000008,
|
|
000000000000000000000000000000000000000000000000,
|
|
300000000000000000300000000000000000000000000000,
|
|
#MEASURE 3/4
|
|
100100000100100000100100000100100000,
|
|
#MEASURE 2/4
|
|
#GOGOSTART
|
|
#BPMCHANGE 240
|
|
100000000000100000300000,
|
|
#MEASURE 4/4
|
|
000000000000200000000000100000000000100000300000,
|
|
000000000000200000000000100000000000100000000000,
|
|
100000000000200000000000100000100000200000300000,
|
|
000000000000200000000000100000000000200000400000,
|
|
000000000000100000000000100000000000200000400000,
|
|
000000000000100000000000100000000000200000000000,
|
|
500000000000000000000000000000000000000000000000,
|
|
000000000008000000000000100000000000100000300000,
|
|
000000000000200000000000100000000000100000300000,
|
|
000000000000200000000000100000000000200000000000,
|
|
200000000000200000000000100000200000000000000000,
|
|
200000100000200000000000100000000000100000300000,
|
|
000000000000200000000000100000000000200000000000,
|
|
100000000000200000000000200000000000100000000000,
|
|
500000000000000000000000000000000000000000000008,
|
|
000000000000000000000000100000000000100000300000,
|
|
000000000000200000000000100000000000200000000000,
|
|
100000200000200000200000200000200000200000200000,
|
|
100000000000200000100000000000000000100000000000,
|
|
000000000000200000000000100000000000200000000000,
|
|
100000000000200000100000000000000000100000000000,
|
|
000000000000200000000000100000000000200000000000,
|
|
100000000000200000100000000000000000100000000000,
|
|
000000000000200000000000100000000000200000000000,
|
|
500000000000000000000000000000000000000000000008,
|
|
000000000000000000000000000000000000000000000000,
|
|
100000100000200000000000100000100000200000000000,
|
|
100100100000200000000000100000100000200000100000,
|
|
100000100000200000000000100000100000200000000000,
|
|
100100100000200000100000100100100000200000200000,
|
|
100000100000200000000000100000100000200000000000,
|
|
100100100000200000100000100100100000200000200000,
|
|
500000000000000000000000000000000000000000000008,
|
|
|
|
#GOGOEND
|
|
|
|
|
|
#END
|
|
|
|
|
|
COURSE:Hard
|
|
LEVEL:6
|
|
SCOREINIT:880
|
|
|
|
|
|
#START
|
|
|
|
|
|
100000000000100000100000000000000000100000200000,
|
|
100000000000100000100000000000000000100000200000,
|
|
100000000000100000100000000000000000100000200000,
|
|
500000000000000000000000000000000000000000800000,
|
|
000000000000000000000000000000000000000000000000,
|
|
#MEASURE 3/4
|
|
000000000000000000000000000000000000,
|
|
#BPMCHANGE 240
|
|
#MEASURE 2/4
|
|
#GOGOSTART
|
|
000000000000000000000000,
|
|
#MEASURE 4/4
|
|
100000000000000000100000000000000000100000000000,
|
|
000000000000000000000000100000000000200000000000,
|
|
100000000000000000100000000000000000100000000000,
|
|
000000000000000000000000100000000000200000000000,
|
|
100000000000000000100000000000000000100000000000,
|
|
000000000000000000000000100000000000200000000000,
|
|
500000000000000000000000000000000000000000800000,
|
|
000000000000000000000000000000000000000000000000,
|
|
#GOGOEND
|
|
#BPMCHANGE 120
|
|
100000000100000000100000000000000000100000200000,
|
|
200000000200000000100000000000000000100000000000,
|
|
100000000100000000100000000000200000000000500000,
|
|
000000000000000000000800000000000000000000000000,
|
|
200000000200000000200000000000000000200000100000,
|
|
200000000200000000200000000000000000000000100000,
|
|
200000000200000000200000000000200000000000500000,
|
|
000000000000000000000800000000000000000000000000,
|
|
100000000100000000100000000000000000100000000000,
|
|
200000000200000000200000000000000000200000000000,
|
|
100000000100000000100000000000000000100000000000,
|
|
500000000000000000000000000000000000000000000800,
|
|
#MEASURE 1/4
|
|
000000000000,
|
|
#BPMCHANGE 240
|
|
#MEASURE 2/4
|
|
#GOGOSTART
|
|
100000000000100000300000,
|
|
#MEASURE 4/4
|
|
000000000000000000000000100000000000100000300000,
|
|
000000000000000000000000100000000000100000000000,
|
|
100000000000100000000000100000100000000000300000,
|
|
000000000000000000000000100000000000200000400000,
|
|
000000000000000000000000100000000000200000400000,
|
|
000000000000200000000000200000000000100000000000,
|
|
500000000000000000000000000000000000000000000000,
|
|
000000800000000000000000100000000000100000300000,
|
|
000000000000000000000000100000000000100000300000,
|
|
000000000000100000000000100000000000200000000000,
|
|
200000000000200000000000200000200000000000200000,
|
|
000000000000000000000000100000000000100000300000,
|
|
000000000000000000000000100000000000100000000000,
|
|
100000000000200000000000200000000000000000000000,
|
|
#GOGOEND
|
|
#BPMCHANGE 120
|
|
#MEASURE 4/4
|
|
100000000100000000100000200000000200000000200000,
|
|
100000000100000000100000200000000000000000000000,
|
|
300000000300000000300000400000000400000000400000,
|
|
300000000300000000300000400000000000000000000000,
|
|
200000000100000000200000200000000100000000200000,
|
|
200000000100000000200000200000000000000000000000,
|
|
400000000300000000400000400000000300000000400000,
|
|
400000000300000000400000600000000000000000000000,
|
|
000000000000000000000000000000000000000000000800,
|
|
000000000000000000000000000000000000000000000000,
|
|
300000000000000000300000000000000000000000000000,
|
|
#MEASURE 3/4
|
|
600000000000000000800000000000000000,
|
|
#BPMCHANGE 240
|
|
#MEASURE 2/4
|
|
#GOGOSTART
|
|
100000000000100000300000,
|
|
#MEASURE 4/4
|
|
000000000000000000000000100000000000100000300000,
|
|
000000000000000000000000100000000000100000000000,
|
|
100000000000100000000000100000100000000000300000,
|
|
000000000000000000000000100000000000200000400000,
|
|
000000000000000000000000100000000000200000400000,
|
|
000000000000200000000000200000000000100000000000,
|
|
500000000000000000000000000000000000000000000000,
|
|
000000800000000000000000100000000000100000300000,
|
|
000000000000000000000000100000000000100000300000,
|
|
000000000000100000000000100000000000200000000000,
|
|
200000000000200000000000200000200000000000200000,
|
|
000000000000000000000000100000000000100000300000,
|
|
000000000000000000000000100000000000100000000000,
|
|
100000000000200000000000200000000000000000000000,
|
|
500000000000000000000000000000000000000000800000,
|
|
000000000000000000000000100000000000100000300000,
|
|
000000000000000000000000100000000000100000000000,
|
|
300000000000000000000000000000000000000000000000,
|
|
100000000000000000100000000000000000100000000000,
|
|
000000000000000000000000100000000000200000000000,
|
|
100000000000000000100000000000000000100000000000,
|
|
000000000000000000000000100000000000200000000000,
|
|
100000000000000000100000000000000000100000000000,
|
|
000000000000000000000000100000000000200000000000,
|
|
500000000000000000000000000000000000000000800000,
|
|
000000000000000000000000000000000000000000000000,
|
|
100000000000000000100000000000000000100000000000,
|
|
000000000000000000000000100000000000200000000000,
|
|
100000000000000000100000000000000000100000000000,
|
|
000000000000000000000000100000000000200000000000,
|
|
100000000000000000100000000000000000100000000000,
|
|
000000000000000000000000100000000000200000000000,
|
|
500000000000000000000000000000000000000000800000,
|
|
|
|
#GOGOEND
|
|
|
|
|
|
#END
|
|
|
|
|
|
COURSE:Normal
|
|
LEVEL:5
|
|
SCOREINIT:990
|
|
|
|
|
|
#START
|
|
|
|
|
|
100000000000000000100000000000000000000000000000,
|
|
100000000000000000100000000000000000000000000000,
|
|
100000000000000000100000000000000000000000000000,
|
|
500000000000000000000000000000000000000000800000,
|
|
000000000000000000000000000000000000000000000000,
|
|
#MEASURE 3/4
|
|
000000000000000000000000000000000000,
|
|
#BPMCHANGE 240
|
|
#MEASURE 2/4
|
|
#GOGOSTART
|
|
000000000000000000000000,
|
|
#MEASURE 4/4
|
|
100000000000000000000000100000000000000000000000,
|
|
100000000000000000000000000000000000000000000000,
|
|
100000000000000000000000100000000000000000000000,
|
|
100000000000000000000000000000000000000000000000,
|
|
100000000000000000000000100000000000000000000000,
|
|
100000000000000000000000000000000000000000000000,
|
|
500000000000000000000000000000000000000000800000,
|
|
000000000000000000000000000000000000000000000000,
|
|
#GOGOEND
|
|
#BPMCHANGE 120
|
|
100000000000000000100000000000000000000000000000,
|
|
100000000000000000100000000000000000000000000000,
|
|
100000000000000000100000000000000000000000500000,
|
|
000000000000000000800000000000000000000000000000,
|
|
200000000000000000200000000000000000000000000000,
|
|
200000000000000000200000000000000000000000000000,
|
|
200000000000000000200000000000000000000000500000,
|
|
000000000000000000800000000000000000000000000000,
|
|
100000000000000000100000000000000000100000000000,
|
|
200000000000000000200000000000000000200000000000,
|
|
100000000000000000100000000000000000100000000000,
|
|
500000000000000000000000000000000000000000800000,
|
|
#MEASURE 1/4
|
|
000000000000,
|
|
000000000000,
|
|
#BPMCHANGE 240
|
|
#MEASURE 2/4
|
|
#GOGOSTART
|
|
100000000000000000300000,
|
|
#MEASURE 4/4
|
|
000000000000000000000000100000000000000000300000,
|
|
000000000000000000000000100000000000100000000000,
|
|
100000000000000000000000100000000000000000300000,
|
|
000000000000000000000000200000000000000000400000,
|
|
000000000000000000000000200000000000000000400000,
|
|
000000000000000000000000200000000000200000000000,
|
|
500000000000000000000000000000000000000000000000,
|
|
000000800000000000000000100000000000000000300000,
|
|
000000000000000000000000100000000000000000300000,
|
|
000000000000000000000000100000000000100000000000,
|
|
200000000000000000000000200000000000000000400000,
|
|
000000000000000000000000100000000000000000300000,
|
|
000000000000000000000000100000000000100000000000,
|
|
100000000000000000000000000000000000000000000000,
|
|
#GOGOEND
|
|
#BPMCHANGE 120
|
|
100000000000200000000000200000000000000000000000,
|
|
100000000000200000000000200000000000000000000000,
|
|
300000000000400000000000400000000000000000000000,
|
|
300000000000300000000000300000000000000000000000,
|
|
200000000000200000000000200000000000000000000000,
|
|
100000000000100000000000100000000000000000000000,
|
|
400000000000400000000000400000000000000000000000,
|
|
300000000000300000000000600000000000000000000000,
|
|
000000000000000000000000000000000000000000800000,
|
|
000000000000000000000000000000000000000000000000,
|
|
300000000000000000300000000000000000000000000000,
|
|
#MEASURE 3/4
|
|
600000000000000000800000000000000000,
|
|
#BPMCHANGE 240
|
|
#MEASURE 2/4
|
|
#GOGOSTART
|
|
100000000000000000300000,
|
|
#MEASURE 4/4
|
|
000000000000000000000000100000000000000000300000,
|
|
000000000000000000000000100000000000100000000000,
|
|
100000000000000000000000100000000000000000300000,
|
|
000000000000000000000000200000000000000000400000,
|
|
000000000000000000000000200000000000000000400000,
|
|
000000000000000000000000200000000000200000000000,
|
|
500000000000000000000000000000000000000000000000,
|
|
000000800000000000000000100000000000000000300000,
|
|
000000000000000000000000100000000000000000300000,
|
|
000000000000000000000000100000000000100000000000,
|
|
200000000000000000000000200000000000000000400000,
|
|
000000000000000000000000100000000000000000300000,
|
|
000000000000000000000000100000000000100000000000,
|
|
300000000000000000000000300000000000000000000000,
|
|
600000000000000000000000000000000000000000000000,
|
|
000000800000000000000000100000000000000000300000,
|
|
000000000000000000000000100000000000100000000000,
|
|
300000000000000000000000000000000000000000000000,
|
|
100000000000000000000000100000000000000000000000,
|
|
100000000000000000000000000000000000000000000000,
|
|
100000000000000000000000100000000000000000000000,
|
|
100000000000000000000000000000000000000000000000,
|
|
100000000000000000000000100000000000000000000000,
|
|
100000000000000000000000000000000000000000000000,
|
|
500000000000000000000000000000000000000000800000,
|
|
000000000000000000000000000000000000000000000000,
|
|
100000000000000000000000100000000000000000000000,
|
|
100000000000000000000000000000000000000000000000,
|
|
100000000000000000000000100000000000000000000000,
|
|
100000000000000000000000000000000000000000000000,
|
|
100000000000000000000000100000000000000000000000,
|
|
100000000000000000000000000000000000000000000000,
|
|
500000000000000000000000000000000000000000800000,
|
|
#GOGOEND
|
|
|
|
|
|
#END
|
|
|
|
|
|
COURSE:Easy
|
|
LEVEL:4
|
|
SCOREINIT:1260
|
|
|
|
|
|
#START
|
|
|
|
|
|
100000000000000000000000000000000000000000000000,
|
|
100000000000000000000000000000000000000000000000,
|
|
100000000000000000000000000000000000000000000000,
|
|
500000000000000000000000000000000000000000800000,
|
|
000000000000000000000000000000000000000000000000,
|
|
#MEASURE 3/4
|
|
000000000000000000000000000000000000,
|
|
#BPMCHANGE 240
|
|
#MEASURE 2/4
|
|
#GOGOSTART
|
|
000000000000000000000000,
|
|
#MEASURE 4/4
|
|
100000000000000000000000000000000000000000000000,
|
|
100000000000000000000000000000000000000000000000,
|
|
100000000000000000000000000000000000000000000000,
|
|
000000000000000000000000000000000000000000000000,
|
|
100000000000000000000000000000000000000000000000,
|
|
100000000000000000000000000000000000000000000000,
|
|
500000000000000000000000000000000000000000800000,
|
|
000000000000000000000000000000000000000000000000,
|
|
#GOGOEND
|
|
#BPMCHANGE 120
|
|
100000000000000000000000000000000000000000000000,
|
|
100000000000000000000000000000000000000000000000,
|
|
100000000000000000000000000000000000000000500000,
|
|
000000000000000000800000000000000000000000000000,
|
|
200000000000000000000000000000000000000000000000,
|
|
200000000000000000000000000000000000000000000000,
|
|
200000000000000000000000000000000000000000500000,
|
|
000000000000000000800000000000000000000000000000,
|
|
100000000000000000100000000000000000000000000000,
|
|
100000000000000000000000000000000000000000000000,
|
|
100000000000000000100000000000000000000000000000,
|
|
500000000000000000000000000000000000000000800000,
|
|
#MEASURE 1/4
|
|
000000000000,
|
|
000000000000,
|
|
#BPMCHANGE 240
|
|
#MEASURE 2/4
|
|
#GOGOSTART
|
|
000000000000000000100000,
|
|
#MEASURE 4/4
|
|
000000000000000000000000000000000000000000100000,
|
|
000000000000000000000000000000000000000000000000,
|
|
100000000000000000000000100000000000000000100000,
|
|
000000000000000000000000000000000000000000100000,
|
|
000000000000000000000000000000000000000000100000,
|
|
000000000000000000000000000000000000000000000000,
|
|
500000000000000000000000000000000000000000000000,
|
|
000000800000000000000000000000000000000000100000,
|
|
000000000000000000000000000000000000000000100000,
|
|
000000000000000000000000000000000000000000000000,
|
|
200000000000000000000000200000000000000000200000,
|
|
000000000000000000000000000000000000000000100000,
|
|
000000000000000000000000000000000000000000000000,
|
|
100000000000000000000000000000000000000000000000,
|
|
#GOGOEND
|
|
#BPMCHANGE 120
|
|
100000000000000000000000200000000000000000000000,
|
|
100000000000000000000000200000000000000000000000,
|
|
300000000000000000000000400000000000000000000000,
|
|
300000000000000000000000400000000000000000000000,
|
|
200000000000000000000000200000000000000000000000,
|
|
100000000000000000000000100000000000000000000000,
|
|
300000000000000000000000300000000000000000000000,
|
|
400000000000000000000000600000000000000000000000,
|
|
000000000000000000000000000000000000000000800000,
|
|
000000000000000000000000000000000000000000000000,
|
|
300000000000000000300000000000000000000000000000,
|
|
#MEASURE 3/4
|
|
600000000000000000800000000000000000,
|
|
#BPMCHANGE 240
|
|
#MEASURE 2/4
|
|
#GOGOSTART
|
|
000000000000000000100000,
|
|
#MEASURE 4/4
|
|
000000000000000000000000000000000000000000100000,
|
|
000000000000000000000000000000000000000000000000,
|
|
100000000000000000000000100000000000000000100000,
|
|
000000000000000000000000000000000000000000100000,
|
|
000000000000000000000000000000000000000000100000,
|
|
000000000000000000000000000000000000000000000000,
|
|
500000000000000000000000000000000000000000000000,
|
|
000000800000000000000000000000000000000000100000,
|
|
000000000000000000000000000000000000000000100000,
|
|
000000000000000000000000000000000000000000000000,
|
|
200000000000000000000000200000000000000000200000,
|
|
000000000000000000000000000000000000000000100000,
|
|
000000000000000000000000000000000000000000000000,
|
|
100000000000000000000000000000000000000000000000,
|
|
500000000000000000000000000000000000000000800000,
|
|
000000000000000000000000000000000000000000100000,
|
|
000000000000000000000000000000000000000000000000,
|
|
300000000000000000000000000000000000000000000000,
|
|
100000000000000000000000000000000000000000000000,
|
|
100000000000000000000000000000000000000000000000,
|
|
100000000000000000000000000000000000000000000000,
|
|
000000000000000000000000000000000000000000000000,
|
|
100000000000000000000000000000000000000000000000,
|
|
100000000000000000000000000000000000000000000000,
|
|
500000000000000000000000000000000000000000800000,
|
|
000000000000000000000000000000000000000000000000,
|
|
100000000000000000000000000000000000000000000000,
|
|
100000000000000000000000000000000000000000000000,
|
|
100000000000000000000000000000000000000000000000,
|
|
000000000000000000000000000000000000000000000000,
|
|
100000000000000000000000000000000000000000000000,
|
|
100000000000000000000000000000000000000000000000,
|
|
500000000000000000000000000000000000000000800000,
|
|
#GOGOEND
|
|
|
|
|
|
#END
|
|
|