Files
ESE-ja-fix/01 Pop/Joyful/Joyful.tja
T
2023-06-15 19:00:23 -05:00

366 lines
4.1 KiB
Plaintext

//TJADB Project
TITLE:Joyful
TITLEJA:じょいふる
SUBTITLE:--Ikimono-gakari
BPM:159
WAVE:Joyful.ogg
OFFSET:-1.598
DEMOSTART:37.8
COURSE:Oni
LEVEL:6
BALLOON:32,15
SCOREINIT:600
SCOREDIFF:153
#START
7,
,
,
00000800,
1010200210102000,
1010200210201020,
1010200210102000,
1010200210201120,
1010200210102002,
1010201000112020,
1010200210102002,
1010201000112020,
1010200210102002,
1010201000112020,
1010200210102002,
11210200,
1000202011102010,
1010201000102022,
1000202011102010,
1010201000102022,
1000202011102010,
1010201000112000,
30023002,
32323000,//24
#GOGOSTART
3011202030112020,
3011202011102010,
0010200210102011,
11210121,
3011202030112020,
3011202011102010,
0010200210102011,
11210121,//32
#GOGOEND
1000202011102010,
1010201000112022,
1000202011102010,
1010201000112022,
1000202011102010,
1010201000112000,
30023002,
32323000,//40
#GOGOSTART
3011202030112020,
3011202011102010,
0010200210102011,
11210121,
3011202030112020,
3011202011102010,
0010200210102011,
11210121,//48
#GOGOEND
1020100012101000,
1020100011102220,
1020100012101000,
1020100011102220,
1020100012101000,
1020100011102220,
3003004040040030,
7008,//56
#GOGOSTART
3011202030112020,
3011202011102010,
0010200210102011,
11210121,
3011202030112020,
3011202011102010,
05000000,
000000000000000000000008000000000000000000000000,//64
#GOGOEND
#END
COURSE:Hard
LEVEL:6
BALLOON:22,15,15,12
SCOREINIT:690
SCOREDIFF:160
#START
7,
,
,
08,
11201020,
11201020,
11201020,
11201200,
11021102,
11210200,
11021102,
11210200,
11021102,
11210200,
11021102,
11210200,
10201120,
11220120,
10201120,
11220120,
10201120,
11220120,
30023002,
3340,//24
#GOGOSTART
1110100011101000,
1110100010102020,
11201120,
11210100,
1110300011103000,
1110300010102020,
07000000,
0008,//32
#GOGOEND
10201120,
11220120,
10201120,
11220000,
10201120,
11220120,
30023002,
3340,//40
#GOGOSTART
1110200011102000,
1110200010102020,
11201120,
11210100,
1110400011104000,
1110400010102020,
07000000,
0008,//48
#GOGOEND
1111,
10101210,
10101012,
10101210,
10101210,
1000100010101110,
3003003040040040,
7008,//56
#GOGOSTART
3022200030222000,
3022200010102000,
1110200011102000,
1110201000100000,
3022200030222000,
3022200010102020,
05000000,
000000000000000000000008000000000000000000000000,//64
#GOGOEND
,
,
,
,
#END
COURSE:Normal
LEVEL:4
BALLOON:18,6
SCOREINIT:930
SCOREDIFF:230
#START
7,
,
,
0008,
11000000,
,
11000000,
,
11001100,
11002000,
11001100,
11002000,
11001100,
11002000,
11001100,
11000000,
1011,
10220000,
1011,
10220000,
1011,
10220000,
33,
3340,//24
#GOGOSTART
3230,
3210,
500000000000000000000000000000000000000000000008,
,
3230,
3210,
600000000000000000000000000000000000000000000008,
,//32
#GOGOEND
10001011,
10220000,
10001011,
10220000,
10001011,
10220000,
33,
3340,//40
#GOGOSTART
3232,
3011,
500000000000000000000000000000000000000000000008,
,
3232,
3011,
600000000000000000000000000000000000000000000008,
,//48
#GOGOEND
10101110,
1122,
10101110,
1122,
10101110,
1122,
34,
7008,//56
#GOGOSTART
3232,
30201011,
500000000000000000000000000000000000000000000008,
,
3232,
30201011,
6,
000000000008000000000000000000000000000000000000,//64
#GOGOEND
,
,
,
,
#END
COURSE:Easy
LEVEL:3
BALLOON:16,3
SCOREINIT:820
SCOREDIFF:250
#START
7,
,
,
0008,
3,
,
3,
,
11,
1,
11,
1,
11,
1,
11,
1,
1110,
1,
1110,
1,
1110,
1,
33,
3330,//24
#GOGOSTART
33,
3,
600000000000000000000000000000000000000000000008,
,
33,
3,
600000000000000000000000000000000000000000000008,
,//32
#GOGOEND
1111,
1,
1111,
1,
1111,
1,
33,
3330,//40
#GOGOSTART
33,
34,
600000000000000000000000000000000000000000000008,
,
33,
34,
600000000000000000000000000000000000000000000008,
,//48
#GOGOEND
11,
2220,
11,
2220,
11,
2220,
34,
70000800,//56
#GOGOSTART
33,
3044,
600000000000000000000000000000000000000000000008,
,
33,
3044,
6,
000000000008000000000000000000000000000000000000,//64
#GOGOEND
,
,
,
,
#END