Files
ESE-ja-fix/01 Pop/Monkey Magic/Monkey Magic.tja
T
2023-06-15 19:15:39 -05:00

289 lines
10 KiB
Plaintext

//TJADB Project
TITLE:Monkey Magic
TITLEJA:モンキー・マジック
SUBTITLE:--GODIEGO/Monkey
BPM:115
WAVE:Monkey Magic.ogg
OFFSET:-2.922
DEMOSTART:44.661
COURSE:Oni
LEVEL:7
SCOREINIT:770
SCOREDIFF:223
#START
100000200200000100000100000100000100100000200000,
100000200200000100000100000100000100100000200000,
100000200200000100000100000100000100100000200000,
100000200200000100000100000100000200100000100000,
100000000200200000100000100000000100200000100000,
100000000200200000100000300000000000300000000000,
100000000200200000100000100000000200200000100000,
100000000200200000100000300000000000300000000000,
100000200200000100000100000100000100100000200000,
100000200200000100000100000100000100100000200000,
100000000200200000100000100000000200200000100000,
200200100100100100200200500000000000000008000000,
100000000100000000100000200000000200000000200000,
100000000000100000000100000100200200100200200200,
100000000100000000100000200000000200000000200000,
100000000000100000000100000100200000100200200000,
100100100000100100100000100100100100100000100000,
100100100000100100100000100100100100100000000000,
100000000100000000100000200000000200000000200000,
100000000000100000000100100200200000100200200000,
#GOGOSTART
100000200000100200000100100000200100100000200000,
100000200000100200000100100000200000100000200000,
100000200000100200000100100000200100100000200000,
300000000000300000300000300000000300000000000000,
100000200000100200000100100000200100100000200000,
100000200000100200000100100000200000100000200000,
100000200000100200000100100000200100100000200000,
#MEASURE 2/4
300000000000300000300000,
#MEASURE 4/4
300000000300000000000000000000000000000000000000,
#GOGOEND
200200100100100100200200500000000000000008000000,
100000000100000000100000200000000200000000200000,
100000000000100000000100000100200200100200200200,
100000000100000000100000200000000200000000200000,
100000000000100000000100000100200000100200200000,
100100100000100100100000100100100100100000100000,
100100100000100100100000100100100100100000000000,
100000000100000000100000200000000200000000200000,
100000000000100000000100100200200000100200200000,
#GOGOSTART
100000200000100200000100100000200100100000200000,
100000200000100200000100100000200000100000200000,
100000200000100200000100100000200100100000200000,
300000000000300000300000300000000300000000000000,
100000200000100200000100100000200100100000200000,
100000200000100200000100100000200000100000200000,
100000200000100200000100100000200100100000200000,
#MEASURE 2/4
300000000000300000000000,
#MEASURE 4/4
600000000000000000000000000000000008000000000000,
#GOGOEND
#END
COURSE:Hard
LEVEL:5
BALLOON:16,18
SCOREDIFF:318
#START
700000000000000000000000000000000000000000000000,
000000000000000000000000800000000000000000000000,
700000000000000000000000000000000000000000000000,
000000000000000000000000800000000000000000000000,
100000000000200000000100100000000000200000000000,
100000000000200000000000300000000000300000000000,
100000000000200000000100100000000000200000000000,
100000000000200000000000300000000000300000000000,
100000200200000100000100000100000100100000000000,
100000200200000100000100000100000100100000000000,
100000000000200000000100100000000000200000000000,
100100100000100000100000500000000000000008000000,
100000000100000000100000200000000200000000200000,
100000000000100000000100000000000000000000000000,
100000000100000000100000200000000200000000200000,
100000000000100000000100000000000000000000000000,
100000100000200000100100100000100000200000000000,
100000100000200000100100100000100000200000000000,
100000000100000000100000200000000200000000200000,
100000000000100000000100000000000000000000000000,
#GOGOSTART
100000000000100000100000200200000100000000000000,
100000200000100000100000200200000100000000000000,
100000000000100000100000200200000100000000000000,
300000000000300000000000300000000000000000000000,
100000000000100000100000200200000100000000000000,
100000200000100000100000200200000100000000000000,
100000000000100000100000200200000100000000000000,
#MEASURE 2/4
300000000000300000000000,
#MEASURE 4/4
600000000000000000000000000000000008000000000000,
#GOGOEND
000000000000000000000000000000000000000000000000,
100000000100000000100000200000000200000000200000,
100000000000100000000100000000000000000000000000,
100000000100000000100000200000000200000000200000,
100000000000100000000100000000000000000000000000,
100000100000200000100100100000100000200000000000,
100000100000200000100100100000100000200000000000,
100000000100000000100000200000000200000000200000,
100000000000100000000100000000000000000000000000,
#GOGOSTART
100000000000100000100000200200000100000000000000,
100000200000100000100000200200000100000000000000,
100000000000100000100000200200000100000000000000,
300000000000300000000000300000000000000000000000,
100000000000100000100000200200000100000000000000,
100000200000100000100000200200000100000000000000,
100000000000100000100000200200000100000000000000,
#MEASURE 2/4
300000000000300000000000,
#MEASURE 4/4
600000000000000000000000000000000008000000000000,
#GOGOEND
#END
COURSE:Normal
LEVEL:3
BALLOON:8,9,10
SCOREINIT:1030
SCOREDIFF:423
#START
700000000000000000000000000000000000000000000000,
000000000000000000000000800000000000000000000000,
700000000000000000000000000000000000000000000000,
000000000000000000000000800000000000000000000000,
100000000000200000000000100000000000200000000000,
100000000000000000000000200000000000200000000000,
100000000000200000000000100000000000200000000000,
100000000000000000000000200000000000200000000000,
700000000000000000000000000000000000000000000000,
000000000000000000000000800000000000000000000000,
100000000000200000000000100000000000000000000000,
500000000000000000000000000000000008000000000000,
100000000100000000100000100000000000000000000000,
100000000000100000000100000000000000000000000000,
100000000100000000100000100000000000000000000000,
100000000000100000000100000000000000000000000000,
100000000000100000100000100000000000000000000000,
100000000000100000100000100000000000000000000000,
100000000100000000100000100000000000000000000000,
100000000000100000000100000000000000000000000000,
#GOGOSTART
000000000000100000100000100000000100000000000000,
000000000000200000200000200000000200000000000000,
000000000000100000100000100000000100000000000000,
300000000000300000000000300000000000000000000000,
000000000000100000100000100000000100000000000000,
000000000000200000200000200000000200000000000000,
000000000000100000100000100000000100000000000000,
#MEASURE 2/4
300000000000300000000000,
#MEASURE 4/4
300000000000000000000000000000000000000000000000,
#GOGOEND
500000000000000000000000000000000008000000000000,
100000000100000000100000100000000000000000000000,
100000000000100000000100000000000000000000000000,
100000000100000000100000100000000000000000000000,
100000000000100000000100000000000000000000000000,
100000000000100000100000100000000000000000000000,
100000000000100000100000100000000000000000000000,
100000000100000000100000100000000000000000000000,
100000000000100000000100000000000000000000000000,
#GOGOSTART
000000000000100000100000100000000100000000000000,
000000000000200000200000200000000200000000000000,
000000000000100000100000100000000100000000000000,
300000000000300000000000300000000000000000000000,
000000000000100000100000100000000100000000000000,
000000000000200000200000200000000200000000000000,
000000000000100000100000100000000100000000000000,
#MEASURE 2/4
300000000000300000000000,
#MEASURE 4/4
300000000000000000000000000000000000000000000000,
#GOGOEND
#END
COURSE:Easy
LEVEL:3
BALLOON:8,9,10
SCOREINIT:1000
SCOREDIFF:673
#START
700000000000000000000000000000000000000000000000,
000000000000000000000000800000000000000000000000,
700000000000000000000000000000000000000000000000,
000000000000000000000000800000000000000000000000,
100000000000200000000000000000000000000000000000,
100000000000000000000000000000000000000000000000,
100000000000200000000000000000000000000000000000,
100000000000000000000000000000000000000000000000,
700000000000000000000000000000000000000000000000,
000000000000000000000000800000000000000000000000,
100000000000200000000000000000000000000000000000,
100000000000000000000000000000000000000000000000,
100000000000000000000000100000000000000000000000,
100000000000100000000100000000000000000000000000,
100000000000000000000000100000000000000000000000,
100000000000100000000100000000000000000000000000,
100000000000200000000000000000000000200000000000,
100000000000200000000000000000000000200000000000,
100000000000000000000000100000000000000000000000,
100000000000100000000100000000000000000000000000,
#GOGOSTART
000000000000100000000000100000000100000000000000,
000000000000200000000000200000000200000000000000,
000000000000100000000000100000000100000000000000,
000000000000300000000000300000000000000000000000,
000000000000100000000000100000000100000000000000,
000000000000200000000000200000000200000000000000,
000000000000100000000000100000000100000000000000,
#MEASURE 2/4
000000000000300000000000,
000000000000000000000000,
#MEASURE 4/4
300000000000000000000000000000000000000000000000,
#GOGOEND
000000000000000000000000000000000000000000000000,
100000000000000000000000100000000000000000000000,
100000000000100000000100000000000000000000000000,
100000000000000000000000100000000000000000000000,
100000000000100000000100000000000000000000000000,
100000000000200000000000000000000000200000000000,
100000000000200000000000000000000000200000000000,
100000000000000000000000100000000000000000000000,
100000000000100000000100000000000000000000000000,
#GOGOSTART
000000000000100000000000100000000100000000000000,
000000000000200000000000200000000200000000000000,
000000000000100000000000100000000100000000000000,
000000000000300000000000300000000000000000000000,
000000000000100000000000100000000100000000000000,
000000000000200000000000200000000200000000000000,
000000000000100000000000100000000100000000000000,
#MEASURE 2/4
000000000000300000000000,
000000000000000000000000,
#MEASURE 4/4
300000000000000000000000000000000000000000000000,
#GOGOEND
#END