Files
ESE-ja-fix/01 Pop/Robinson/Robinson.tja
T
2023-06-15 19:15:39 -05:00

271 lines
8.6 KiB
Plaintext

//TJADB Project
TITLE:Robinson
TITLEJA:ロビンソン
SUBTITLE:--Spitz
BPM:111
WAVE:Robinson.ogg
OFFSET:-2.428
DEMOSTART:71.617
COURSE:Oni
LEVEL:7
SCOREINIT:640
SCOREDIFF:160
#START
11012022,
11011021,
11012202,
12121020,
11012022,
11011021,
11012202,
1020101000102200,
1010221101102020,
1010221102202000,
1010221101102020,
1010221102202011,
1010201100112000,
1110201100112000,
1110201101102020,
1010201112112000,
1010221101102020,
1010221102202000,
1010221101102020,
1010221102202011,
1010201100112000,
1110201100112000,
1110201101102020,
1011201112102200,
3000201000222020,
1011201102201020,
3000201000222020,
1011201101101020,
3000201000222020,
1011201102201020,
1022101000202020,
3000300030202210,
#GOGOSTART
1111201111201120,
1111201120202210,
1111201111201120,
1111201120202120,
1111201111201120,
1111202010210210,
1211102212111000,
1200201000102210,
1111201111202022,
1021021011212022,
1111201111202022,
1021021011212210,
1011201210112020,
1011201210112020,
1001006000000000,
000000000000000000000008000000000000200200200000,
#GOGOEND
#END
COURSE:Hard
LEVEL:4
SCOREINIT:830
SCOREDIFF:248
#START
100000100000000000100000200000000000200000000000,
100000100000000000100000100000000000200000000000,
100000100000000000100000200000200000000000200000,
100000200000100000200000100000000000000000000000,
100000100000000000100000200000000000200000000000,
100000100000000000100000100000000000200000000000,
100000100000000000100000200000200000000000200000,
100000200000100000100000000000000000000000000000,
100000100000200000100000100000000000200000000000,
100000100000200000100100100000000000200000000000,
100000100000200000100000100000000000200000000000,
100000100000200000100100100000000000200000100100,
100000100000200000200000000000100000200000000000,
100100100000200000200000000000100000200000000000,
100000100000200000100100100000000000200000000000,
100000000000200000100100100000000000200000000000,
100000100000200000100000100000000000200000000000,
100000100000200000100100100000000000200000000000,
100000100000200000100000100000000000200000000000,
100000100000200000100100100000000000200000000000,
100000100000200000200200000000100000200000000000,
100000100000200000200200000000100000200000000000,
100000100000200000200200000000100000200000200000,
100000000000200000100000100000000000000000000000,
100000000000200000100000000000100100100000000000,
100000000000200000100000000000200200200000200000,
100000000000200000100000000000100100100000000000,
100000000000200000100000000000200200200000200000,
100000000000200000100000000000100100100000000000,
100000000000200000100000000000200200200000200000,
100000000000200000100000000000100100100000000000,
300000000000300000000000400000000000400000000000,
#GOGOSTART
500000000000000000000000000000000080000000000000,
100000100000200000100100100000100000200000000000,
500000000000000000000000000000000080000000000000,
100000100000200000100100100000100000200000000000,
100000100000200000100000000000100000200000200000,
100000000000100000000000300000000300000000300000,
600000000000000000000080000000000000200000000000,
200200000000200000100000000000100000100000100000,
500000000000000000000000000000000080000000000000,
100000100000200000100100100000100000200000000000,
500000000000000000000000000000000080000000000000,
100000100000200000100100100000100000200000000000,
100000000000200000100100100000000000200000000000,
100000000000200000100100100000000000200000000000,
100000000100000000500000000000000000000000000000,
000000000000000000000008000000000000000000000000,
#GOGOEND
#END
COURSE:Normal
LEVEL:3
BALLOON:7,20
SCOREINIT:1290
SCOREDIFF:588
#START
100000000000000000000000000000000000200000000000,
100000000000000000000000000000000000200000000000,
100000000000000000000000000000000000200000000000,
100000000000100000000000100000000000000000000000,
100000000000200000000000000000000000200000000000,
100000000000200000000000000000000000200000000000,
100000000000200000000000000000000000200000000000,
500000000000800000000000000000000000000000000000,
100000100000000000100000100000000000000000000000,
100000000000100000000000100000000000000000000000,
100000100000000000100000100000000000000000000000,
100000000000100000000000100000000000000000000000,
100000000000100000000000200000000000000000000000,
100000000000100000000000200000000000000000000000,
100000000000100000000000200000000000200000000000,
500000000000000000000000800000000000000000000000,
100000100000000000100000100000000000000000000000,
100000000000100000000000100000000000000000000000,
100000100000000000100000100000000000000000000000,
200000000000200000000000200000000000000000000000,
100000000000100000000000200000000000000000000000,
100000000000100000000000200000000000000000000000,
100000000000100000000000200000000000200000000000,
500000000000000000000000800000000000000000000000,
100000000000100000100000000000000000100000000000,
100000000000100000000000200000000000000000000000,
100000000000200000200000000000000000200000000000,
100000000000100000000000200000000000000000000000,
100000000000100000100000000000000000100000000000,
100000000000100000000000200000000000200000000000,
100000000000000000000000000000000000000000000000,
300000000000300000000000300000000000300000000000,
#GOGOSTART
500000000000000000000000000000800000000000000000,
100000000000100000000000200000000000000000000000,
500000000000000000000000000000800000000000000000,
100000000000200000000000200000000000000000000000,
500000000000000000000000000000800000000000000000,
100000000000100000000000200000000000200000000000,
100000000000000000100000100000000000000000000000,
700000000000000000000000000000800000000000000000,
500000000000000000000000000000800000000000000000,
100000000000100000000000200000000000000000000000,
500000000000000000000000000000800000000000000000,
100000000000200000000000200000000000000000000000,
100000000000000000100000100000000000100000000000,
100000000000000000100000100000000000100000000000,
900000000000000000000000000000000000000000000000,
000000000000000000000000000000800000000000000000,
#GOGOEND
#END
COURSE:Easy
LEVEL:3
BALLOON:10
SCOREINIT:1040
SCOREDIFF:675
#START
100000000000000000000000000000000000000000000000,
100000000000000000000000000000000000000000000000,
100000000000000000000000100000000000000000000000,
100000000000100000000000100000000000000000000000,
100000000000000000000000000000000000200000000000,
100000000000000000000000000000000000200000000000,
100000000000000000000000100000000000000000000000,
500000000000800000000000000000000000000000000000,
100000100000000000000000100000000000000000000000,
100000000000100000000000100000000000000000000000,
100000100000000000000000100000000000000000000000,
100000000000100000000000100000000000000000000000,
100000000000000000000000200000000000000000000000,
100000000000000000000000200000000000000000000000,
100000000000100000000000100000000000000000000000,
500000000000000000000000800000000000000000000000,
100000100000000000000000100000000000000000000000,
100000000000100000000000100000000000000000000000,
100000100000000000000000100000000000000000000000,
200000000000200000000000200000000000000000000000,
100000000000000000000000200000000000000000000000,
100000000000000000000000200000000000000000000000,
100000000000100000000000100000000000000000000000,
500000000000000000000000800000000000000000000000,
100000000000200000000000000000000000200000000000,
100000000000000000000000100000000000000000000000,
100000000000200000000000000000000000200000000000,
100000000000000000000000100000000000000000000000,
100000000000200000000000000000000000200000000000,
100000000000000000000000100000000000100000000000,
100000000000000000000000000000000000000000000000,
300000000000300000000000300000000000300000000000,
#GOGOSTART
500000000000000000000000800000000000000000000000,
100000000000100000000000200000000000000000000000,
500000000000000000000000800000000000000000000000,
100000000000200000000000200000000000000000000000,
500000000000000000000000800000000000000000000000,
100000000000100000000000100000000000000000000000,
100000000000000000100000100000000000000000000000,
100000000000000000300000000000000000000000000000,
500000000000000000000000800000000000000000000000,
100000000000100000000000200000000000000000000000,
500000000000000000000000800000000000000000000000,
100000000000200000000000200000000000000000000000,
100000000000000000100000100000000000000000000000,
100000000000000000200000200000000000000000000000,
900000000000000000000000000000000000000000000000,
000000000000000000000000000000800000000000000000,
#GOGOEND
#END