forked from ESE/ESE
308 lines
11 KiB
Plaintext
308 lines
11 KiB
Plaintext
//TJADB Project
|
|
TITLE:UZA
|
|
TITLEJA:UZA
|
|
SUBTITLE:--AKB48/WONDA Morning Shot
|
|
BPM:131.4
|
|
WAVE:UZA.ogg
|
|
OFFSET:-2.090
|
|
DEMOSTART:75.144
|
|
|
|
COURSE:Oni
|
|
LEVEL:6
|
|
SCOREINIT:800
|
|
SCOREDIFF:200
|
|
|
|
|
|
#START
|
|
|
|
|
|
300000300000000000000000100000000000000000100000,
|
|
000000000000100000000000100000000000100000000000,
|
|
400000400000000000000000200000000000000000200000,
|
|
000000000000200000000000200000000000200000000000,
|
|
300000300000000000000000100000000000000000100000,
|
|
000000000000100000000000100000000000100000000000,
|
|
400000400000000000000000200000000000000000200000,
|
|
000000000000200000000000200000000000300000300000,
|
|
000000100000200000000000100000000000200000100000,
|
|
000000100000200000000000100000100100100000200000,
|
|
000000100000200000000000100000000000200000100000,
|
|
000000100000200000000000100000200200200000200000,
|
|
000000100000200000000000100000000000200000100000,
|
|
000000100000200000000000100000100100100000200000,
|
|
000000100000200000000000100000000000200000100000,
|
|
300000000000300000000000300000000000300000000000,
|
|
100000000000200000100000100000000000200000100000,
|
|
100000000000200000100000100000100000200000000000,
|
|
100000000000200000100000100000000000200000100000,
|
|
100000000000200000100000100000100100200000000000,
|
|
100000000000200000100000100000000000200000100000,
|
|
100000000000200000100000100000100000200000000000,
|
|
100000000000200000100000100000000000200000100000,
|
|
100000000000200000000000200000200000200200200000,
|
|
100000000000200000100000100000000000200000100000,
|
|
100000000000200000100000100000100000200000000000,
|
|
100000000000200000100000100000000000200000100000,
|
|
100000000000200000100000100000100100200000000000,
|
|
100000000000200000100000100000000000200000100000,
|
|
100000000000200000100000100000100000200000000000,
|
|
100000200000100000200000100000200000100000000000,
|
|
300000000000300000000000300000000000000000000000,
|
|
100000100000200000000000100000100000200000100100,
|
|
100000100000200000000000100000100100100000200000,
|
|
100000100000200000000000100000100000200000100100,
|
|
100000100000200000000000100000100100100000200000,
|
|
100000100000200000100100100000100000200000100100,
|
|
100000100000200000100100100000100000200000000000,
|
|
500000000000000000000000000000000000000000000008,
|
|
000000000000000000000000000000000000000000000000,
|
|
|
|
#GOGOSTART
|
|
100000000000200000100000000000100000200000100000,
|
|
200000000000200000100100200000100000200000100100,
|
|
100000000000200000100000000000100000200000100000,
|
|
200000000000200000100100200000100000200000100100,
|
|
100000000000200000100000000000100000200000100000,
|
|
200000000000200000100100200000100000200000100100,
|
|
100000200000100000200000100000200000100000200000,
|
|
100000200000100000200000100000200000300000300000,
|
|
000000000000200000100000000000100000200000100000,
|
|
200000000000200000200200200000100000200000100100,
|
|
100000000000200000100000000000100000200000100000,
|
|
200000000000200000200200200000100000200000200200,
|
|
200000000000200000100000000000100000200000100000,
|
|
200000000000200000200200200000100000200000100100,
|
|
100000200000200000100000200000200000100000000000,
|
|
300000000000300000000000300000000000300000000000,
|
|
|
|
#GOGOEND
|
|
|
|
|
|
#END
|
|
|
|
|
|
COURSE:Hard
|
|
LEVEL:5
|
|
BALLOON:15
|
|
SCOREINIT:890
|
|
SCOREDIFF:220
|
|
|
|
|
|
#START
|
|
|
|
|
|
300000300000000000000000100000000000000000100000,
|
|
000000000000100000000000100000000000100000000000,
|
|
400000400000000000000000200000000000000000200000,
|
|
000000000000200000000000200000000000200000000000,
|
|
300000300000000000000000100000000000000000100000,
|
|
000000000000100000000000100000000000100000000000,
|
|
400000400000000000000000200000000000000000200000,
|
|
000000000000200000000000200000000000300000300000,
|
|
000000100000200000000000100000000000200000100000,
|
|
000000000000100000000000100000000000200000200000,
|
|
000000100000200000000000100000000000200000100000,
|
|
000000000000100000000000100000000000200000200000,
|
|
000000100000200000000000100000000000200000100000,
|
|
000000000000200000000000100000000000200000200000,
|
|
000000100000200000000000100000000000200000100000,
|
|
300000000000300000000000300000000000300000000000,
|
|
000000100000100000000000100000000000200000100000,
|
|
100000000000100000000000100000000000200000100000,
|
|
100000000000100000000000100000000000200000100000,
|
|
100000000000100000100000100000000000200000000000,
|
|
000000100000100000000000100000000000200000100000,
|
|
100000000000100000000000100000000000200000100000,
|
|
100000000000100000000000100000000000200000100000,
|
|
100000000000100000100000100000000000200000000000,
|
|
000000100000200000000000100000000000200000100000,
|
|
100000000000200000000000100000000000200000500000,
|
|
000000000000000000000000000008000000000000000000,
|
|
100000100000100000000000100000000000200000000000,
|
|
000000100000200000000000100000000000200000100000,
|
|
100000000000200000000000100000000000200000500000,
|
|
000000000000000000000000000000000008000000000000,
|
|
300000000000300000000000300000000000000000000000,
|
|
300000000000200000100000000000100000200000000000,
|
|
100000000000200000100000000000100000200000000000,
|
|
300000000000200000100000000000100000200000000000,
|
|
100000000000200000100000000000100000200000000000,
|
|
100100100000200000000000100000100000200000000000,
|
|
100100100000200000000000100000100000200000000000,
|
|
9,
|
|
8,
|
|
|
|
#GOGOSTART
|
|
300000000000200000000000000000100000100000100000,
|
|
100000000000200000000000100100100000200000500000,
|
|
000000000800000000000000000000100000100000100000,
|
|
100000000000200000000000100100100000200000500000,
|
|
000000000800000000000000000000100000100000100000,
|
|
100000000000200000000000100100100000200000100000,
|
|
000000500000000000000000000000000000000000000800,
|
|
000000000000000000000000000000000000300000300000,
|
|
000000000000200000000000000000100000100000100000,
|
|
100000000000200000000000200200200000200000500000,
|
|
000000000800000000000000000000100000100000100000,
|
|
100000000000200000000000200200200000200000500000,
|
|
000000000800000000000000000000100000100000100000,
|
|
100000000000200000200000200200200000200000200000,
|
|
000000100000200000000000100000000000200000100000,
|
|
300000000000300000000000300000000000300000000000,
|
|
|
|
#GOGOEND
|
|
|
|
|
|
#END
|
|
|
|
|
|
COURSE:Normal
|
|
LEVEL:5
|
|
BALLOON:6,9,13,7
|
|
SCOREINIT:1060
|
|
SCOREDIFF:260
|
|
|
|
|
|
#START
|
|
|
|
|
|
300000000000000000000000100000000000000000100000,
|
|
000000000000100000000000100000000000100000000000,
|
|
300000000000000000000000100000000000000000100000,
|
|
000000000000100000000000100000000000100000000000,
|
|
300000000000000000000000100000000000000000100000,
|
|
000000000000100000000000100000000000100000000000,
|
|
300000000000000000000000100000000000000000100000,
|
|
000000000000100000000000100000000000300000300000,
|
|
000000100000100000000000100000000000000000100000,
|
|
000000000000100000000000100000000000200000000000,
|
|
000000100000100000000000100000000000000000100000,
|
|
000000000000100000000000100000000000200000000000,
|
|
000000100000100000000000100000000000000000100000,
|
|
000000000000100000000000100000000000200000000000,
|
|
000000100000100000000000100000000000000000000000,
|
|
300000000000300000000000300000000000300000000000,
|
|
000000100000100000000000100000000000200000000000,
|
|
100000000000100000000000100000000000100000000000,
|
|
100000000000200000000000000000000000200000000000,
|
|
000000000000200000000000000000000000200000000000,
|
|
000000100000100000000000100000000000200000000000,
|
|
100000000000100000000000100000000000100000000000,
|
|
100000000000200000000000000000000000200000000000,
|
|
000000000000200000000000000000000000200000000000,
|
|
000000100000100000000000100000000000200000000000,
|
|
100000000000100000000000100000000000100000700000,
|
|
000000000000000000800000000000000000000000000000,
|
|
000000000000200000000000000000000000200000000000,
|
|
000000100000100000000000100000000000200000000000,
|
|
100000000000100000000000100000000000100000500000,
|
|
000000000000000000000000000000800000000000000000,
|
|
300000000000300000000000300000000000000000000000,
|
|
100000000000500000000000000000000000000000000000,
|
|
000000000000000000800000000000000000000000000000,
|
|
100000000000500000000000000000000000000000000000,
|
|
000000000000000000000000000000800000000000000000,
|
|
100000000000100000000000100000100000000000000000,
|
|
100000000000100000000000100000100000000000000000,
|
|
9,
|
|
8,
|
|
|
|
#GOGOSTART
|
|
300000000000100000000000000000100000100000100000,
|
|
100000000000200000000000100000100000100000600000,
|
|
000000000000000000800000000000000000000000000000,
|
|
100000000000200000000000100000100000100000500000,
|
|
000000000000000000800000000000000000000000000000,
|
|
100000000000200000000000100000100000100000100000,
|
|
000000700000000000000000000000000000000000000000,
|
|
000000000000000000800000000000000000300000300000,
|
|
000000000000100000000000000000100000100000100000,
|
|
100000000000200000000000100000100000100000600000,
|
|
000000000000000000800000000000000000000000000000,
|
|
100000000000200000000000100000100000100000500000,
|
|
000000000000000000800000000000000000000000000000,
|
|
100000000000200000000000100000100000100000100000,
|
|
000000700000000000000000000000000000800000000000,
|
|
300000000000300000000000300000000000300000000000,
|
|
|
|
#GOGOEND
|
|
|
|
|
|
#END
|
|
|
|
|
|
COURSE:Easy
|
|
LEVEL:3
|
|
BALLOON:6,6,8,4
|
|
SCOREINIT:1080
|
|
SCOREDIFF:420
|
|
|
|
|
|
#START
|
|
|
|
|
|
300000000000000000000000300000000000000000000000,
|
|
000000000000000000000000000000000000000000000000,
|
|
300000000000000000000000300000000000000000000000,
|
|
000000000000000000000000000000000000000000000000,
|
|
300000000000000000000000300000000000000000000000,
|
|
000000000000000000000000000000000000000000000000,
|
|
300000000000000000000000300000000000000000000000,
|
|
000000000000000000000000000000000000300000000000,
|
|
300000000000000000000000100000000000000000000000,
|
|
100000000000100000000000000000000000000000000000,
|
|
300000000000000000000000100000000000000000000000,
|
|
100000000000100000000000000000000000000000000000,
|
|
300000000000000000000000100000000000000000000000,
|
|
100000000000100000000000000000000000000000000000,
|
|
300000000000000000000000100000000000000000000000,
|
|
600000000000000000000000800000000000000000000000,
|
|
100000000000000000000000100000000000000000000000,
|
|
100000000000000000000000000000000000100000000000,
|
|
100000000000000000000000000000000000000000000000,
|
|
000000000000000000000000000000000000000000000000,
|
|
100000000000000000000000100000000000000000000000,
|
|
100000000000000000000000000000000000100000000000,
|
|
100000000000000000000000000000000000000000000000,
|
|
000000000000000000000000000000000000000000000000,
|
|
100000000000000000000000100000000000000000000000,
|
|
100000000000000000000000100000000000000000700000,
|
|
000000000000000000000000000000000000000000800000,
|
|
000000000000000000000000000000000000000000000000,
|
|
100000000000000000000000100000000000000000000000,
|
|
100000000000000000000000100000000000500000000000,
|
|
000000000000000000000000800000000000000000000000,
|
|
300000000000300000000000300000000000000000000000,
|
|
100000000000500000000000000000000000000000000000,
|
|
000000000000000000800000000000000000000000000000,
|
|
100000000000500000000000000000000000000000000000,
|
|
000000000000000000000000800000000000000000000000,
|
|
200000000000000000000000200000000000000000000000,
|
|
200000000000000000000000200000000000000000000000,
|
|
9,
|
|
8,
|
|
|
|
#GOGOSTART
|
|
300000000000000000000000100000000000000000000000,
|
|
100000000000100000000000100000000000600000000000,
|
|
000000000000000000800000000000000000000000000000,
|
|
100000000000100000000000100000000000500000000000,
|
|
000000000000000000800000000000000000000000000000,
|
|
100000000000100000000000100000000000000000700000,
|
|
000000000000000000000000000000000000000000000000,
|
|
000000000000000000800000000000000000300000000000,
|
|
000000000000100000000000000000000000000000000000,
|
|
100000000000100000000000100000000000600000000000,
|
|
000000000000000000800000000000000000000000000000,
|
|
100000000000100000000000100000000000500000000000,
|
|
000000000000000000800000000000000000000000000000,
|
|
100000000000100000000000100000000000000000700000,
|
|
000000000000000000000000000000800000000000000000,
|
|
300000000000300000000000300000000000300000000000,
|
|
|
|
#GOGOEND
|
|
|
|
|
|
#END
|
|
|