Files
ESE-ja-fix/02 Anime/88/88.tja
T
2023-06-15 19:15:39 -05:00

310 lines
12 KiB
Plaintext

//TJADB Project
TITLE:88
TITLEJA:88
SUBTITLE:--L.M.C./Katekyo Hitman REBORN!
SUBTITLEJA:太鼓の達人オリジナル曲
BPM:175
WAVE:88.ogg
OFFSET:-0.840
DEMOSTART:44.725
BGMOVIE:88.mp4
COURSE:Oni
LEVEL:8
SCOREINIT:610
SCOREDIFF:160
#START
100000000000200000000000000000200000000000100000,
200000000000200000200000000000100000100000100000,
100000000000200000000000000000200000000000100000,
200000000000200000200000000000100000100000100000,
100000000000200000100000000000100000200000000000,
100000000000200000100000000000100000200000000000,
100000000000200000100000100000100000200000000000,
300000000000000000000000000000000000000000000000,
100000000000200000000000100000100000200000100100,
100000100000200000000000100000100000200000000000,
100000000000200000000000100000100000200000100100,
100000100000200000000000100000100000200000100200,
100000000000200000000000100000100000200000100100,
100000100000200000000000100000100000200000100100,
100000000000200000000000100000100000200000100100,
100000100000200000000000100100100000200000100000,
100000100000200000100000000000100000200000100000,
100000100000200000100000000000100000200000100000,
100000100000200000100000000000100000200000100000,
100000100000200000100000000000100000200000100000,
100100100000200000100000000000100000200000100000,
100100100000200000100000000000100100200000100000,
100000100100200000100000000000100100200000100000,
100000200000000000100000200000100200100100100000,
100000100000200000100000100000100000200000100000,
100000100000200000100000100000200000100100200000,
100000100000200000100000100000100000200000100000,
100000100000200000100000100000200000100100200000,
200000100000100100200000200000100000100100200000,
200000100000100100200000200000100000100100200000,
100000100000200000100000200000100000200000100000,
100000100000200000100000100000200200200100100000,
#GOGOSTART
100000000000200000100100100100100000200000100000,
100000100000200000100000100100100000200000100000,
100000000000200000100100100100100000200000100000,
100000000000200000100100100000100000200000100100,
100000100000200000000200100000100000200000200200,
100000100000200000000200100000100000200000100100,
100000100000200000000200100000100000200000200200,
100000100000200000100000000000100000200200100100,
100000000000200000100100100100100000200000100000,
100000100000200000100000100100100000200000100000,
100000000000200000100100100100100000200000100000,
300000000000400000300000000000300000400000100100,
100000100000200000000200100000100000200000200200,
100000100000200000000200100000100000200000100100,
100000100000200000000200100000100000200000200200,
100000100000200000100000000000100000100100100000,
100000100000100000100000100000100000100000100000,
000000200000100000200200100000200200100000200200,
100000000000200000000000100000100000200000100100,
100000100000200000100100100000100000200000000200,
100000100000200000100100100000100000200000100100,
100000100000200000100000000000100100200000000200,
100000000000200000100100100000100000200000100100,
100000100000200000100100100000100000200000000200,
100000100000200000100100100000100000200000100100,
100000100100100000100100100000100100100000300000,
#GOGOEND
#END
COURSE:Hard
LEVEL:4
BALLOON:10
SCOREINIT:880
SCOREDIFF:230
#START
100000000000200000000000000000200000000000000000,
100000000000000000200000000000000000000000000000,
100000000000200000000000000000200000000000000000,
100000000000200000200000000000000000200000000000,
100000000000200000000000200000000000000000000000,
100000000000200000000000200000000000000000000000,
100000000000200000000000200000000000000000000000,
300000000000000000000000000000000000000000000000,
100000100000200000000000200000000000100000100000,
100000000000200000000000100000000000200000000000,
100000100000200000000000200000000000100000100000,
100000000000200000000000100000000000000000000000,
100000100000200000000000200000000000100000100000,
100000000000200000000000100000000000200000000000,
100000100000200000000000200000000000100000100000,
500000000000000000000000800000000000000000000000,
100000100000100000000000000000100000100000000000,
100000000000200000200000000000200000200000000000,
100000100000100000000000000000100000100000000000,
100000000000200000200000000000200000200000000000,
100000100000100000000000000000100000100000100000,
100000000000200000200000000000200000200000000000,
100000000000200000000000100000000000200000000000,
500000000000000000000000800000000000000000000000,
100000000000200000000000100000100000100000000000,
100000000000200000200000000000200000200000000000,
100000000000200000000000100000100000100000000000,
100000000000200000200000000000200000200000000000,
100000000000200000000000100000100000100000000000,
100000000000000000000000000000100000100000000000,
100000000000200000000000100000000000200000000000,
700000000000000000000000800000000000000000000000,
#GOGOSTART
100000000000200000000000000000100000100000000000,
100000000000500000000000000000800000000000000000,
100000000000200000000000000000200000200000000000,
100000000000200000200000000000100000200000000000,
100000000000200000000000000000100000100000100000,
100000000000200000200000000000100000200000000000,
100000000000200000000000000000100000100000100000,
100000000000200000100000000000200000200000000000,
100000000000200000000000000000100000100000000000,
100000000000500000000000000000800000000000000000,
100000000000200000000000000000100000100000000000,
100000000000200000200000000000100000200000000000,
100000000000200000000000000000100000100000100000,
100000000000200000100000000000100000200000000000,
100000000000200000000000000000100000100000100000,
100000000000200000200000000000100000200000000000,
100000000000100000000000100000100000100000000000,
100000000000200000000000100000100100100000000000,
500000000000000000000000000000000000000000000000,
000000000000000000000800000000000000000000000000,
100000000000200000000000100000100000100000000000,
100000000000000000100000000000000000100000000000,
100000000000200000000000100000100000100000000000,
100000100000100000000000100000100000100000000000,
100000000000200000000000100000100100100000000000,
500000000000000000000000000000000000000000000008,
#GOGOEND
#END
COURSE:Normal
LEVEL:4
SCOREINIT:1110
SCOREDIFF:340
#START
000000000000200000000000000000000000000000000000,
200000000000000000000000000000000000000000000000,
000000000000200000000000000000000000000000000000,
200000000000000000000000200000000000000000000000,
100000000000000000000000200000000000000000000000,
100000000000000000000000200000000000000000000000,
100000000000000000000000200000000000000000000000,
300000000000000000000000000000000000000000000000,
100000000000100000000000100000000000000000000000,
100000000000000000000000200000000000000000000000,
100000000000100000000000100000000000000000000000,
100000000000000000000000200000000000000000000000,
100000000000100000000000100000000000000000000000,
100000000000000000000000200000000000000000000000,
100000000000100000000000100000000000000000000000,
100000000000000000000000000000000000000000000000,
100000000000200000000000000000000000000000000000,
100000000000100000000000100000000000000000000000,
100000000000200000000000000000000000000000000000,
100000000000100000000000100000000000000000000000,
100000000000200000000000000000000000000000000000,
100000000000100000000000100000000000000000000000,
100000000000200000000000000000000000000000000000,
100000000000000000000000000000000000000000000000,
100000000000200000000000000000000000100000000000,
100000000000200000000000000000000000000000000000,
100000000000200000000000000000000000100000000000,
100000000000200000000000000000000000000000000000,
100000000000000000000000100000000000100000000000,
100000000000000000000000000000000000100000000000,
100000000000000000000000100000100000100000000000,
500000000000000000000000000000800000000000000000,
#GOGOSTART
000000000000300000000000000000300000000000000000,
300000000000000000600000000000000000800000000000,
000000000000300000000000000000300000000000000000,
300000000000000000600000000000000000800000000000,
100000000000200000000000100000000000100000000000,
100000000000000000000000100000000000000000000000,
100000000000200000000000100000000000100000000000,
100000000000000000000000100000000000000000000000,
000000000000300000000000000000300000000000000000,
300000000000000000600000000000000000800000000000,
000000000000300000000000000000300000000000000000,
300000000000000000600000000000000000800000000000,
100000000000200000000000100000000000100000000000,
100000000000000000000000500000000000800000000000,
100000000000200000000000100000000000100000000000,
100000000000000000000000500000000000800000000000,
100000000000100000000000100000100000100000000000,
300000000000300000000000300000000000300000000000,
600000000000000000000000000000000000000000000000,
000000000000000000000000800000000000000000000000,
100000000000200000000000100000000000100000000000,
100000000000000000000000100000000000000000000000,
100000000000200000000000100000000000100000000000,
100000000000000000000000100000000000000000000000,
100000000000200000000000100000000000100000000000,
500000000000000000000000000000000000000000000008,
#GOGOEND
#END
COURSE:Easy
LEVEL:3
SCOREINIT:1170
SCOREDIFF:470
#START
000000000000100000000000000000000000000000000000,
100000000000000000000000000000000000000000000000,
000000000000100000000000000000000000000000000000,
100000000000000000000000000000000000000000000000,
100000000000100000000000100000000000000000000000,
100000000000100000000000100000000000000000000000,
100000000000100000000000100000000000000000000000,
300000000000000000000000000000000000000000000000,
100000000000100000000000100000000000000000000000,
100000000000000000000000000000000000000000000000,
100000000000100000000000100000000000000000000000,
100000000000000000000000000000000000000000000000,
100000000000100000000000100000000000000000000000,
100000000000000000000000000000000000000000000000,
100000000000100000000000100000000000000000000000,
100000000000000000000000000000000000000000000000,
100000000000000000000000000000000000000000000000,
100000000000000000000000100000000000000000000000,
100000000000000000000000000000000000000000000000,
100000000000000000000000100000000000000000000000,
100000000000000000000000000000000000000000000000,
100000000000000000000000100000000000000000000000,
100000000000100000000000100000000000000000000000,
100000000000000000000000000000000000000000000000,
100000000000000000000000000000000000000000000000,
100000000000000000000000200000000000000000000000,
100000000000000000000000000000000000000000000000,
100000000000000000000000200000000000000000000000,
100000000000000000000000000000000000000000000000,
100000000000000000000000000000000000000000000000,
100000000000000000000000100000000000000000000000,
300000000000000000000000000000000000000000000000,
#GOGOSTART
000000000000100000000000000000000000100000000000,
500000000000000000000000800000000000000000000000,
000000000000100000000000000000000000100000000000,
500000000000000000000000800000000000000000000000,
100000000000100000000000100000000000000000000000,
100000000000000000000000000000000000000000000000,
100000000000100000000000100000000000000000000000,
100000000000000000000000000000000000000000000000,
000000000000100000000000000000000000100000000000,
500000000000000000000000800000000000000000000000,
000000000000100000000000000000000000100000000000,
500000000000000000000000800000000000000000000000,
100000000000100000000000100000000000000000000000,
100000000000000000000000000000000000000000000000,
100000000000100000000000100000000000000000000000,
100000000000000000000000000000000000000000000000,
200000000000000000000000200000000000000000000000,
200000000000000000000000100000000000100000000000,
500000000000000000000000000000000000000000000000,
000000000000000000800000000000000000000000000000,
100000000000000000000000000000000000000000000000,
100000000000000000000000100000000000000000000000,
500000000000000000000000000000000000000000000000,
000000000000000000800000000000000000000000000000,
100000000000000000000000100000000000000000000000,
500000000000000000000000000000000000000000000008,
#GOGOEND
#END