Files
ESE-ja-fix/02 Anime/Blue Bird/Blue Bird.tja
T
2023-06-15 19:15:39 -05:00

321 lines
8.0 KiB
Plaintext

//TJADB Project
TITLE:Blue Bird
TITLEJA:ブルーバード
SUBTITLE:--Ikimono-gakari/NARUTO-Shippuuden
SUBTITLEJA:「NARUTO-ナルト-疾風伝」より
BPM:151.66
WAVE:Blue Bird.ogg
OFFSET:-1.872
DEMOSTART:45.456
COURSE:Oni
LEVEL:6
SCOREINIT:810
SCOREDIFF:233
#START
11,
#BPMCHANGE 152.34
1,
#BPMCHANGE 150.99
22,
#BPMCHANGE 152.58
2,
#BPMCHANGE 151.36
11,
#BPMCHANGE 152.89
10000122,
#BPMCHANGE 152.9
01220101,
#BPMCHANGE 151.31
000000500000000000000000000008000000200000100000,
#BPMCHANGE 152
01211121,
0010201011102010,
01211211,
0022102210101000,
1011101000202000,
1011101000202000,
1011101000202020,
1011101000202000,
1011101000202000,
1011101000202000,
10201211,
0022202220202000,
1011101110101000,
2022202220202000,
1011101110101000,
2022202220222220,
10211120,
11201121,
01221221,
03333000,
#GOGOSTART
11201121,
0010201011102010,
11201121,
0010201022202000,
11201121,
0010200010102011,
1010200011102010,
0020200010102011,
1010201110102010,
0010201011102010,
1010201110102010,
0010201022202000,
1010201110102010,
0010200010102011,
1010200011102010,
0040400000102011,
1010200011102010,
04400444,
04440303,
000000600000000000000000000008000000000000100000,
01211121,
0010201011102010,
01211211,
500000000000000000000000000000000008000000000000,
1022102210221030,
#END
COURSE:Hard
LEVEL:6
SCOREINIT:1030
SCOREDIFF:230
#START
100000000000000000000000100000000000000000000000,
#BPMCHANGE 152.34
100000000000000000000000000000000000000000000000,
#BPMCHANGE 150.99
200000000000000000000000200000000000000000000000,
#BPMCHANGE 152.58
200000000000000000000000000000000000000000000000,
#BPMCHANGE 151.36
100000000000000000000000100000000000000000000000,
#BPMCHANGE 152.89
100000000000000000000000000000100000200000200000,
#BPMCHANGE 152.9
000000100000200000200000000000100000000000100000,
#BPMCHANGE 151.31
000000500000000000000000000000000080000000100000,
#BPMCHANGE 152
000000100000200000100000000000100000200000100000,
000000100000200000100000000000100000200000100000,
000000100000200000100000000000200000200000100000,
500000000000000000000000000000000080000000000000,
100000000000100000100000000000200000200000000000,
100000000000100000100000000000200000200000000000,
100000000000100000100000000000200000200000000000,
100000000000100000100000000000000000000000000000,
100000000000100000100000000000200000200000000000,
100000000000100000100000000000200000200000000000,
100000000000100000000000100000100000100000100000,
000000200000200000000000000000000000000000000000,
100000000000200000000100100000100000200000000000,
100000000000200000000100100000100000200000000000,
100000000000200000000100100000100000200000000000,
100000000000200000000100100000100000100100100000,
100000000000100000100000000000100100100000000000,
200000000000200000200000000000200200200000000000,
000000100000100000000000100000100000000000100000,
000000300000300000300000300000000000000000000000,
#GOGOSTART
100000000000200000000000100000000000200000100000,
000000100000200000100000100100100000100000000000,
100000000000200000000000100000000000200000100000,
000000100000200000000000000000000000000000000000,
100000000000200000000000100000000000200000100000,
000000000000000000000000000000100000200000200000,
000000100000200000200000000000100000200000100000,
000000100000500000000000000000000080000000000000,
100000000000200000000000100000000000200000100000,
000000100000200000100000100100100000100000000000,
100000000000200000000000100000000000200000100000,
000000100000200000000000000000000000000000000000,
100000000000200000000000100000000000200000100000,
000000000000000000000000000000100000200000200000,
000000100000200000200000000000100000200000100000,
000000200000200000000000000000100000200000200000,
000000100000200000200000000000100000000000100000,
000000200000200000000000000000400000400000400000,
000000400000400000400000000000300000000000300000,
000000300000000000000000000000000000000000100000,
#GOGOEND
01211121,
0010201022202010,
0121121,
500000000000000000000000000000000008000000000000,
1011101110222030,
#GOGOEND
#END
COURSE:Normal
LEVEL:4
SCOREINIT:1240
SCOREDIFF:580
#START
1,
#BPMCHANGE 152.34
1,
#BPMCHANGE 150.99
11,
#BPMCHANGE 152.58
1,
#BPMCHANGE 151.36
1,
#BPMCHANGE 152.89
1,
#BPMCHANGE 152.9
30003003,
#BPMCHANGE 151.31
00000001,
#BPMCHANGE 152
00201001,
00201001,
00201011,
,
10110000,
10220000,
10110000,
10220000,
10110000,
10220000,
10001011,
0100,
1201,
1201,
1201,
1200,
1212,
1215,
000000000000000000000000000000000000000008000000,
03333000,
#GOGOSTART
10101011,
,
10101011,
,
10101011,
00000022,
00220500,
000000000000000000000008000000000000000000000000,
10101011,
,
10101011,
,
10101011,
00000022,
00220500,
000000000000000000000008000000000000200000200000,
00220500,
000000000000000000000008000000000000400000400000,
00440600,
000000000000000000000008000000000000000000100000,
00201001,
00201001,
0215,
000000000000000000000000000000000008000000000000,
10101013,
#END
COURSE:Easy
LEVEL:3
SCOREINIT:980
SCOREDIFF:663
#START
100000000000000000000000000000000000000000000000,
#BPMCHANGE 152.34
100000000000000000000000000000000000000000000000,
#BPMCHANGE 150.99
100000000000000000000000100000000000000000000000,
#BPMCHANGE 152.58
100000000000000000000000000000000000000000000000,
#BPMCHANGE 151.36
100000000000000000000000000000000000000000000000,
#BPMCHANGE 152.89
100000000000000000000000000000000000000000000000,
#BPMCHANGE 152.9
100000000000000000000000100000000000000000000000,
#BPMCHANGE 151.31
100000000000000000000000000000000000000000000000,
#BPMCHANGE 152
100000000000000000000000100000000000000000000000,
100000000000100000000000100000000000000000000000,
100000000000000000000000100000000000000000000000,
100000000000000000000000000000000000000000000000,
100000000000100000000000000000000000000000000000,
100000000000100000000000000000000000000000000000,
100000000000100000000000000000000000000000000000,
100000000000100000000000000000000000000000000000,
100000000000100000000000000000000000000000000000,
100000000000100000000000000000000000000000000000,
100000000000000000000000100000000000000000000000,
100000000000100000000000000000000000000000000000,
100000000000000000000000000000000000100000000000,
100000000000000000000000200000000000000000000000,
100000000000000000000000000000000000100000000000,
100000000000000000000000200000000000000000000000,
100000000000000000000000100000000000000000000000,
100000000000000000000000100000000000500000000000,
000000000000000000000000000000000000000000000080,
000000000000000000000000000000000000000000000000,
#GOGOSTART
100000000000000000000000100000000000000000000000,
100000000000000000000000000000000000100000000000,
100000000000000000000000100000000000000000000000,
100000000000000000000000000000000000100000000000,
100000000000000000000000100000000000000000000000,
100000000000000000000000000000000000000000000000,
300000000000000000000000300000000000000000000000,
300000000000300000000000000000000000000000000000,
100000000000000000000000100000000000000000000000,
100000000000000000000000000000000000100000000000,
100000000000000000000000100000000000000000000000,
100000000000000000000000000000000000100000000000,
100000000000000000000000100000000000000000000000,
100000000000000000000000000000000000000000000000,
300000000000000000000000300000000000000000000000,
300000000000300000000000000000000000000000000000,
300000000000000000000000300000000000000000000000,
300000000000300000000000000000000000000000000000,
300000000000000000000000300000000000000000000000,
600000000000000000000000000080000000000000000000,
#GOGOEND
100000000000000000000000100000000000000000000000,
100000000000100000000000100000000000000000000000,
100000000000000000000000100000000000000000000000,
100000000000100000000000100000000000000000000000,
500000000000000000000000000000000000000000000000,
000000000000000000000000000000000000000080000000,
#END