Files
ESE-ja-fix/02 Anime/Can Do/Can Do.tja
T
2023-01-17 00:45:18 -05:00

595 lines
19 KiB
Plaintext
Raw Blame History

This file contains ambiguous Unicode characters
This file contains Unicode characters that might be confused with other characters. If you think that this is intentional, you can safely ignore this warning. Use the Escape button to reveal them.
//TJADB Project
TITLE:Can Do
TITLEJA:Can Do
SUBTITLE:--GRANRODEO/Kuroko’s Basketball
SUBTITLEJA:「黒子のバスケ」より
BPM:198.65
WAVE:Can Do.ogg
OFFSET:-1.400
DEMOSTART:63.705
COURSE:Oni
LEVEL:6
BALLOON:8
SCOREINIT:640
SCOREDIFF:173
#START
200000000000000000000000200000000000000000000000,
#BPMCHANGE 198.77
200000000000000000000000200000000000000000000000,
#BPMCHANGE 198.05
#SCROLL 1.01
200000000000000000000000200000000000000000000000,
#BPMCHANGE 201.65
#SCROLL 0.99
200000000000000000100100100000100000200000000000,
#BPMCHANGE 200
#SCROLL 1
100000000000100000000000100000000000100000000000,
100000000000100000000000100000000000100000000000,
100000000000100000000000100100100100100000200000,
000000200000200000100000300000400000000000000000,
100000200000100000200000100000200000100000200000,
100000200000100000200000100000200000100000200000,
100000200000100000200000100000200000100000200000,
100000000000100000000000100000100100100000000000,
100000200000100000200000100000200000100000200000,
100000200000100000200000100000200000100000200000,
100000200000100000200000100000200000100000200000,
000000200000200000100000300000400000000000000000,
000000000000000000000000000000000000000000000000,
000000000000000000000000200000100000000000000000,
100000000000200000000000000000000000200000000000,
100000000000200000200000000000200000000000200000,
100000000000200000000000000000000000200000000000,
100000000000200000200000000000200000000000200000,
100000000000100000000000200000000000200000000000,
100000000000100000000000200000000000200200200000,
300000000000400000300000000000400000300000000000,
400000300000000000000000300000000000300000000000,
100000000000200000100100100000100000200000100000,
100000000000200000100000000000100000200000000000,
100000000000200000100100100000100000200000100000,
100000000000200000100000000000100000200000000000,
100000200200200000100000100000100000200000000000,
100000000000200000100000100000100000200000000000,
100000200200200000100100100000100000200000300000,
000000200000200000200000100100100100100000000000,
100000000000100000200000000000100000200000200200,
200000000000200000100000000000200000100000100100,
100000000000100000200000000000100000200000200200,
200000000000200000100000000000400000000000000000,
100000000000100000200000000000100000200000200200,
200000000000200000100000000000200000100000100100,
100000000000100000200000000000100000200000000000,
#BPMCHANGE 198.29
300000000000300000000000300000100100100000000000,
#BPMCHANGE 197.58
#SCROLL 1.01
100000000000000000100000100000000000200000000000,
#BPMCHANGE 203.41
#SCROLL 0.98
100000100000000000000000200000000000100000100000,
#BPMCHANGE 199.73
#SCROLL 1
100000000000000000100000100000000000200000000000,
#BPMCHANGE 201.09
#SCROLL 0.99
100000100000000000000000200000000000100000000000,
#BPMCHANGE 200
#SCROLL 1
100000100000200000200000100000000000200000100000,
000000100000200200200000100000000000200000000000,
#BPMCHANGE 201.46
#SCROLL 0.99
100100100100100000000000200200200200200000000000,
#BPMCHANGE 198.56
#SCROLL 1
100100100100100000000000200200200200200000000000,
#BPMCHANGE 204.64
#SCROLL 0.97
300000400000400000300000400000400000300000400000,
#BPMCHANGE 195.57
#SCROLL 1.02
300000000000000000000000000000000000000000000000,
#GOGOSTART
#BPMCHANGE 200
#SCROLL 1
100000200000100000200000100000200000100000200000,
100000200000100000200000100000100100100000000000,
100000200000100000200000100000200000100000200000,
#BPMCHANGE 198.35
100000200000100000200000100000200200200000000000,
#BPMCHANGE 199.97
100000100000200000100000100000100000200000100000,
#BPMCHANGE 200.45
#SCROLL 0.99
100000100000200000100000100000100000200000100000,
#BPMCHANGE 201.25
100000100000200200200000100000100000200200200000,
#BPMCHANGE 200
#SCROLL 1
700000000000000000000000000000000800000000000000,
#BPMCHANGE 200.85
#SCROLL 0.99
100000000000200000100000000000100000000000100000,
#BPMCHANGE 197.82
#SCROLL 1.01
000000100000200000100000100100100000200000000000,
#BPMCHANGE 197.58
100000000000200000100000000000100000000000100000,
#BPMCHANGE 201.92
#SCROLL 0.99
000000100000200000100000200200200000200000000000,
100000100000200000100000100000100000200000100000,
#BPMCHANGE 201.25
100000100000200200200000100000100000200200200000,
500000000000000000000000000000000000000008000000,
#BPMCHANGE 195.83
#SCROLL 1.02
400000000000300000000000300000000000300000000000,
#BPMCHANGE 200.45
#SCROLL 0.99
100000200000100000200000100000200000100000200000,
#BPMCHANGE 201.34
100000100100100000000000300000000000300000000000,
#BPMCHANGE 198.86
#SCROLL 1
100000200000100000200000100000200000100000200000,
#BPMCHANGE 203.54
#SCROLL 0.98
100000100100100000000000300000000000300000000000,
#BPMCHANGE 203.5
600000000000000000000000000000000000000000000000,
000000000000000000000000000000000008000000000000,
#GOGOEND
#END
COURSE:Hard
LEVEL:4
BALLOON:9,7
SCOREINIT:750
SCOREDIFF:223
#START
200000000000000000000000200000000000000000000000,
#BPMCHANGE 198.77
200000000000000000000000200000000000000000000000,
#BPMCHANGE 198.05
#SCROLL 1.01
200000000000000000000000200000000000000000000000,
#BPMCHANGE 201.65
#SCROLL 0.99
200000000000000000000000200000000000000000000000,
#BPMCHANGE 200
#SCROLL 1
100000000000100000000000100000000000100000000000,
100000000000100000000000100000000000100000000000,
100000000000100000000000100000000000100000500000,
000000000000000000000000000000000008000000000000,
100000000000200000000000100000000000200000000000,
100000000000200000000000100000000000200000000000,
100000000000200000000000100000000000200000000000,
100000000000100000000000100000000000000000000000,
100000000000200000000000100000000000200000000000,
100000000000200000000000100000000000200000000000,
100000000000200000000000100000000000200000100000,
000000200000200000200000300000300000000000000000,
000000000000000000000000000000000000000000000000,
000000000000000000000000000000000000000000000000,
100000000000200000000000000000000000200000000000,
100000000000200000200000000000200000000000200000,
100000000000200000000000000000000000200000000000,
100000000000200000200000000000200000000000200000,
100000000000100000000000200000000000200000000000,
100000000000100000000000200000000000200000000000,
300000000000000000300000000000000000300000000000,
000000300000000000000000300000000000300000000000,
100000000000200000000000100000100000200000000000,
100000000000200000100000000000100000200000000000,
100000000000200000000000100000100000200000000000,
100000000000200000100000000000100000200000000000,
100000000000100000000000200000000000200000000000,
100000000000100000000000200000000000200000000000,
700000000000000000000000000000000000000000000000,
000000000000000000000000000000000000000000000800,
000000000000000000000000000000000000000000000000,
100000000000100000100000000000100000100000000000,
200000000000200000200000000000200000200000000000,
100000000000100000100000000000100000100000000000,
300000000000000000000000000000000000000000000000,
100000000000100000100000000000100000100000000000,
200000000000200000200000000000200000200000000000,
100000000000100000100000000000100000100000000000,
#BPMCHANGE 198.29
300000000000300000000000300000000000000000000000,
#BPMCHANGE 197.58
#SCROLL 1.01
100000000000000000100000100000000000200000000000,
#BPMCHANGE 203.41
#SCROLL 0.98
100000100000000000000000200000000000000000000000,
#BPMCHANGE 199.73
#SCROLL 1
100000000000000000100000100000000000200000000000,
#BPMCHANGE 201.09
#SCROLL 0.99
100000100000000000000000200000000000000000000000,
#BPMCHANGE 200
#SCROLL 1
100000000000100000000000100000000000100000100000,
000000100000100000000000100000000000000000000000,
#BPMCHANGE 201.46
#SCROLL 0.99
100000100000100000000000200000200000200000000000,
#BPMCHANGE 198.56
#SCROLL 1
100000100000100000000000200000200000200000000000,
#BPMCHANGE 204.64
#SCROLL 0.97
300000000000000000300000000000000000300000000000,
#BPMCHANGE 195.57
#SCROLL 1.02
300000000000000000000000000000000000000000000000,
#GOGOSTART
#BPMCHANGE 200
#SCROLL 1
100000000000100000000000100000100000100000000000,
100000000000100000000000100000100000100000000000,
100000000000100000000000100000100000100000000000,
#BPMCHANGE 198.35
100000000000100000000000100000100000100000000000,
#BPMCHANGE 199.97
100000000000200000000000100000100000200000000000,
#BPMCHANGE 200.45
#SCROLL 0.99
100000000000200000000000100000100000200000000000,
#BPMCHANGE 201.25
100000000000000000000000100000000000100000000000,
#BPMCHANGE 200
#SCROLL 1
700000000000000000000000000000000000800000000000,
#BPMCHANGE 200.85
#SCROLL 0.99
100000000000100000000000100000100000100000000000,
#BPMCHANGE 197.82
#SCROLL 1.01
100000000000100000000000100000100000100000000000,
#BPMCHANGE 197.58
100000000000100000000000100000100000100000000000,
#BPMCHANGE 201.92
#SCROLL 0.99
100000000000100000000000100000100000100000000000,
100000000000200000000000100000100000200000000000,
#BPMCHANGE 201.25
100000000000200000000000100000100000200000000000,
500000000000000000000000000000000000008000000000,
#BPMCHANGE 195.83
#SCROLL 1.02
000000000000300000000000300000000000300000000000,
#BPMCHANGE 200.45
#SCROLL 0.99
100000000000200000000000100000000000200000000000,
#BPMCHANGE 201.34
100000000000300000000000300000000000300000000000,
#BPMCHANGE 198.86
#SCROLL 1
100000000000200000000000100000000000200000000000,
#BPMCHANGE 203.54
#SCROLL 0.98
100000000000300000000000300000000000300000000000,
#BPMCHANGE 203.5
600000000000000000000000000000000000000000000000,
000000000000000000000000000000008000000000000000,
#GOGOEND
#END
COURSE:Normal
LEVEL:3
BALLOON:8,7,5
SCOREINIT:960
SCOREDIFF:355
#START
000000000000000000000000000000000000000000000000,
#BPMCHANGE 198.77
000000000000000000000000000000000000000000000000,
#BPMCHANGE 198.05
#SCROLL 1.01
000000000000000000000000000000000000000000000000,
#BPMCHANGE 201.65
#SCROLL 0.99
000000000000000000000000000000000000000000000000,
#BPMCHANGE 200
#SCROLL 1
500000000000000000000000000000000000000000000000,
000000000000000000000008000000000000000000000000,
500000000000000000000000000000000000000000000000,
000000000000000000000008000000000000000000000000,
100000000000000000000000100000000000000000000000,
100000000000000000000000100000000000000000000000,
100000000000000000000000100000000000000000000000,
100000000000100000000000100000000000000000000000,
200000000000000000000000200000000000000000000000,
200000000000000000000000200000000000000000000000,
200000000000000000000000200000000000000000900000,
000000000000000000000000000000000000000000000000,
800000000000000000000000000000000000000000000000,
000000000000000000000000000000000000000000000000,
100000000000000000000000100000000000000000000000,
100000000000100000000000100000000000000000000000,
100000000000000000000000100000000000000000000000,
100000000000100000000000100000000000000000000000,
100000000000000000000000100000000000000000000000,
100000000000100000000000100000000000000000000000,
500000000000000000000000000000000000000000000000,
000000000000000000000008000000000000000000000000,
100000000000000000000000100000000000000000000000,
100000000000100000000000100000000000000000000000,
100000000000000000000000100000000000000000000000,
100000000000100000000000100000000000000000000000,
100000000000000000000000100000000000000000000000,
100000000000100000000000100000000000000000000000,
700000000000000000000000000000000000000000000000,
000000000000000000000000800000000000000000000000,
100000000000100000000000100000000000000000000000,
200000000000200000000000200000000000000000000000,
100000000000100000000000100000000000000000000000,
300000000000000000000000000000000000000000000000,
100000000000100000000000100000000000000000000000,
200000000000200000000000200000000000000000000000,
100000000000100000000000100000000000000000000000,
#BPMCHANGE 198.29
300000000000300000000000300000000000000000000000,
#BPMCHANGE 197.58
#SCROLL 1.01
100000000000000000000000200000000000000000000000,
#BPMCHANGE 203.41
#SCROLL 0.98
100000000000000000000000200000000000000000000000,
#BPMCHANGE 199.73
#SCROLL 1
100000000000000000000000200000000000000000000000,
#BPMCHANGE 201.09
#SCROLL 0.99
100000000000000000000000200000000000000000000000,
#BPMCHANGE 200
#SCROLL 1
100000000000100000000000100000000000000000000000,
100000000000100000000000100000000000000000000000,
#BPMCHANGE 201.46
#SCROLL 0.99
300000000000300000000000400000000000400000000000,
#BPMCHANGE 198.56
#SCROLL 1
300000000000300000000000400000000000400000000000,
#BPMCHANGE 204.64
#SCROLL 0.97
600000000000000000000000000000000000000000000008,
#BPMCHANGE 195.57
#SCROLL 1.02
000000000000000000000000000000000000000000000000,
#GOGOSTART
#BPMCHANGE 200
#SCROLL 1
100000000000100000000000100000000000100000000000,
100000000000100000000000100000000000000000000000,
100000000000100000000000100000000000100000000000,
#BPMCHANGE 198.35
100000000000100000000000100000000000000000000000,
#BPMCHANGE 199.97
100000000000100000000000200000000000000000000000,
#BPMCHANGE 200.45
#SCROLL 0.99
100000000000100000000000200000000000000000000000,
#BPMCHANGE 201.25
100000000000000000000000100000000000000000000000,
#BPMCHANGE 200
#SCROLL 1
700000000000000000000000000000000000800000000000,
#BPMCHANGE 200.85
#SCROLL 0.99
100000000000000000000000100000000000000000000000,
#BPMCHANGE 197.82
#SCROLL 1.01
100000000000100000000000100000000000000000000000,
#BPMCHANGE 197.58
100000000000000000000000100000000000000000000000,
#BPMCHANGE 201.92
#SCROLL 0.99
100000000000100000000000100000000000000000000000,
100000000000100000000000200000000000000000000000,
#BPMCHANGE 201.25
100000000000100000000000200000000000000000000000,
500000000000000000000000000000000000000000000008,
#BPMCHANGE 195.83
#SCROLL 1.02
000000000000300000000000300000000000300000000000,
#BPMCHANGE 200.45
#SCROLL 0.99
000000000000200000000000000000000000200000000000,
#BPMCHANGE 201.34
000000000000300000000000300000000000300000000000,
#BPMCHANGE 198.86
#SCROLL 1
000000000000200000000000000000000000200000000000,
#BPMCHANGE 203.54
#SCROLL 0.98
000000000000300000000000300000000000300000000000,
#BPMCHANGE 203.5
600000000000000000000000000000000000000000000000,
000000000000000000000000000000000008000000000000,
#GOGOEND
#END
COURSE:Easy
LEVEL:2
BALLOON:5,5
SCOREINIT:960
SCOREDIFF:600
#START
000000000000000000000000000000000000000000000000,
#BPMCHANGE 198.77
000000000000000000000000000000000000000000000000,
#BPMCHANGE 198.05
#SCROLL 1.01
000000000000000000000000000000000000000000000000,
#BPMCHANGE 201.65
#SCROLL 0.99
000000000000000000000000000000000000000000000000,
#BPMCHANGE 200
#SCROLL 1
500000000000000000000000000000000000000000000000,
000000000000000000000008000000000000000000000000,
500000000000000000000000000000000000000000000000,
000000000000000000000008000000000000000000000000,
100000000000000000000000100000000000000000000000,
100000000000000000000000000000000000000000000000,
100000000000000000000000100000000000000000000000,
100000000000000000000000000000000000000000000000,
200000000000000000000000200000000000000000000000,
200000000000000000000000000000000000000000000000,
200000000000000000000000200000000000000000900000,
000000000000000000000000000000000000800000000000,
000000000000000000000000000000000000000000000000,
000000000000000000000000000000000000000000000000,
100000000000000000000000000000000000000000000000,
100000000000000000000000100000000000000000000000,
100000000000000000000000000000000000000000000000,
100000000000000000000000100000000000000000000000,
200000000000000000000000200000000000000000000000,
100000000000000000000000100000000000000000000000,
500000000000000000000000000000000000000000000000,
000000000000000000000000000008000000000000000000,
100000000000000000000000000000000000000000000000,
100000000000000000000000100000000000000000000000,
100000000000000000000000000000000000000000000000,
100000000000000000000000100000000000000000000000,
200000000000000000000000200000000000000000000000,
100000000000000000000000100000000000000000000000,
700000000000000000000000000000000000000000000000,
000000000000000000000000800000000000000000000000,
100000000000000000000000100000000000000000000000,
200000000000000000000000200000000000000000000000,
100000000000000000000000100000000000000000000000,
300000000000000000000000000000000000000000000000,
100000000000000000000000100000000000000000000000,
200000000000000000000000200000000000000000000000,
100000000000000000000000100000000000000000000000,
#BPMCHANGE 198.29
300000000000000000000000000000000000000000000000,
#BPMCHANGE 197.58
#SCROLL 1.01
100000000000000000000000200000000000000000000000,
#BPMCHANGE 203.41
#SCROLL 0.98
100000000000000000000000000000000000000000000000,
#BPMCHANGE 199.73
#SCROLL 1
100000000000000000000000200000000000000000000000,
#BPMCHANGE 201.09
#SCROLL 0.99
100000000000000000000000000000000000000000000000,
#BPMCHANGE 200
#SCROLL 1
100000000000000000000000100000000000000000000000,
100000000000000000000000100000000000000000000000,
#BPMCHANGE 201.46
#SCROLL 0.99
300000000000000000000000000000000000000000000000,
#BPMCHANGE 198.56
#SCROLL 1
300000000000000000000000000000000000000000000000,
#BPMCHANGE 204.64
#SCROLL 0.97
600000000000000000000000000000000000000000000008,
#BPMCHANGE 195.57
#SCROLL 1.02
000000000000000000000000000000000000000000000000,
#GOGOSTART
#BPMCHANGE 200
#SCROLL 1
100000000000000000000000100000000000000000000000,
100000000000000000000000000000000000000000000000,
100000000000000000000000100000000000000000000000,
#BPMCHANGE 198.35
100000000000000000000000000000000000000000000000,
#BPMCHANGE 199.97
100000000000000000000000100000000000000000000000,
#BPMCHANGE 200.45
#SCROLL 0.99
200000000000000000000000200000000000000000000000,
#BPMCHANGE 201.25
100000000000000000000000100000000000000000000000,
#BPMCHANGE 200
#SCROLL 1
100000000000000000000000000000000000000000000000,
#BPMCHANGE 200.85
#SCROLL 0.99
100000000000000000000000100000000000000000000000,
#BPMCHANGE 197.82
#SCROLL 1.01
100000000000000000000000000000000000000000000000,
#BPMCHANGE 197.58
100000000000000000000000100000000000000000000000,
#BPMCHANGE 201.92
#SCROLL 0.99
100000000000000000000000000000000000000000000000,
100000000000000000000000100000000000000000000000,
#BPMCHANGE 201.25
200000000000000000000000200000000000000000000000,
500000000000000000000000000000000000000008000000,
#BPMCHANGE 195.83
#SCROLL 1.02
000000000000300000000000300000000000300000000000,
#BPMCHANGE 200.45
#SCROLL 0.99
000000000000000000000000000000000000000000000000,
#BPMCHANGE 201.34
000000000000300000000000300000000000300000000000,
#BPMCHANGE 198.86
#SCROLL 1
000000000000000000000000000000000000000000000000,
#BPMCHANGE 203.54
#SCROLL 0.98
000000000000300000000000300000000000300000000000,
#BPMCHANGE 203.5
600000000000000000000000000000000000000000000000,
000000000000000000000000000000000008000000000000,
#GOGOEND
#END