forked from ESE/ESE
339 lines
7.0 KiB
Plaintext
339 lines
7.0 KiB
Plaintext
//TJADB Project
|
|
TITLE:Makafushigi Adventure! -New Audio-
|
|
TITLEJA:魔訶不思議アドベンチャー! -New Audio-
|
|
SUBTITLE:--Hiroki Takahashi/Dragon Ball
|
|
SUBTITLEJA:「ドラゴンボール」 より
|
|
BPM:135
|
|
WAVE:Makafushigi Adventure! -New Audio-.ogg
|
|
OFFSET:-1.989
|
|
DEMOSTART:10.864
|
|
|
|
COURSE:Oni
|
|
LEVEL:7
|
|
BALLOON:15,2,28,15,24,25
|
|
SCOREINIT:750
|
|
SCOREDIFF:188
|
|
|
|
|
|
#START
|
|
|
|
|
|
1110120101111111,
|
|
2000200200400000,
|
|
1110120101111111,
|
|
1700000000000080,
|
|
4022100070802020,
|
|
1010201200004000,
|
|
1110202100102000,
|
|
1101201011012010,
|
|
1000200100222020,
|
|
1010201200004000,
|
|
1110202100102000,
|
|
1101201011012010,
|
|
500000000000000000000008000000000000000000000000,
|
|
1020102010201000,
|
|
1020102102222000,
|
|
1020102010201111,
|
|
1000101020102000,
|
|
500000000000000000000000000000000000000008000000,
|
|
1010102010002020,
|
|
1111100211111010,
|
|
1000000210102000,
|
|
1111100211111020,
|
|
1000000210102000,
|
|
1011202010102000,
|
|
1011202010102000,
|
|
7000000000000000,
|
|
0000000080003000,
|
|
1111100211111010,
|
|
1000000210102000,
|
|
1111100211111020,
|
|
1000000210102000,
|
|
1011202010112010,
|
|
1011202010112010,
|
|
1011201010112010,
|
|
7000000000008000,
|
|
|
|
#GOGOSTART
|
|
1022102010201020,
|
|
1011201120222020,
|
|
1022101110112020,
|
|
1020102102222022,
|
|
1022102010201020,
|
|
3000300400000000,
|
|
1010202210012010,
|
|
2020201120112010,
|
|
7000000000000000,
|
|
8000000011111111,
|
|
|
|
#GOGOEND
|
|
1010201200002000,
|
|
1110101100102000,
|
|
1101201011012010,
|
|
1000200100222020,
|
|
1010201200002000,
|
|
1110201100102000,
|
|
1101201011012010,
|
|
500000000000000000000008000000000000000000000000,
|
|
1020102010201000,
|
|
1020102102222022,
|
|
1020102010201111,
|
|
1000101020102000,
|
|
7,
|
|
00802200,
|
|
|
|
|
|
#END
|
|
|
|
|
|
COURSE:Hard
|
|
LEVEL:6
|
|
BALLOON:11,16,25,11,16,22
|
|
SCOREINIT:900
|
|
SCOREDIFF:240
|
|
|
|
|
|
#START
|
|
|
|
|
|
1110020101101110,
|
|
1000100100400000,
|
|
1110020101101110,
|
|
1700000000000080,
|
|
4000000000000000,
|
|
1010101100002000,
|
|
1110101100102000,
|
|
1101100011011000,
|
|
2000200200000000,
|
|
1010101100002000,
|
|
1110101100102000,
|
|
1101100011011000,
|
|
50000000000000000000000000000000
|
|
00000000000000000000000000000008
|
|
00000000000000000000000000000000
|
|
00000000000000000000000000000000,
|
|
1020102010201000,
|
|
1000100200001010,
|
|
1000000010201010,
|
|
2000101010002000,
|
|
9000000000000000,
|
|
8000000000000000,
|
|
1000000110111000,
|
|
1000000110102000,
|
|
1000000110111000,
|
|
1000000110102000,
|
|
1010202010102000,
|
|
1010202010102000,
|
|
7000000000000000,
|
|
0000000080003000,
|
|
1000000110111010,
|
|
1000000110102000,
|
|
1000000110111010,
|
|
1000000110102000,
|
|
1010202010102000,
|
|
1010202010102000,
|
|
5000000000000000000000000000000000000000000000000000000000000000
|
|
0000000000000000000000000000000000000000000000000000000000000000
|
|
0000000000000000000000000000000000000000000000000000000000000000
|
|
0000000000000000000000000000000800000000000000000000000000000000,
|
|
7000000000008000,
|
|
#GOGOSTART
|
|
1020100010201000,
|
|
1010101100000000,
|
|
1020101010010010,
|
|
2020202200000000,
|
|
1020100010201000,
|
|
3000300400000000,
|
|
1010200010010010,
|
|
0000101010002000,
|
|
9000000000000000,
|
|
8000000000000000,
|
|
#GOGOEND
|
|
1010101100002000,
|
|
1110101100102000,
|
|
1101100011011000,
|
|
2000200200000000,
|
|
1010101100002000,
|
|
1110101100102000,
|
|
1101100011011000,
|
|
50000000000000000000000000000000
|
|
00000000000000000000000000000008
|
|
00000000000000000000000000000000
|
|
00000000000000000000000000000000,
|
|
1020102010201000,
|
|
1000100200001010,
|
|
1000000010201010,
|
|
2000101010002000,
|
|
9000000000000000,
|
|
0000000080000000,
|
|
0000000000000000,
|
|
#END
|
|
|
|
COURSE:1
|
|
LEVEL:5
|
|
SCOREINIT:1040
|
|
SCOREDIFF:340
|
|
BALLOON:9,10,17,9,11,16
|
|
|
|
#START
|
|
1010000000000000,
|
|
50000000000000000000000000000000
|
|
00000000000000000000000000000008
|
|
00000000000000000000000000000000
|
|
00000000000000000000000000000000,
|
|
1010000000000000,
|
|
0700000000000080,
|
|
4000000000000000,
|
|
1010100300000000,
|
|
1010100300000000,
|
|
1000100010101010,
|
|
1000000000000000,
|
|
1010100300000000,
|
|
1010100300000000,
|
|
1000100010101010,
|
|
50000000000000000000000000000000
|
|
00000000000000000000000000000008
|
|
00000000000000000000000000000000
|
|
00000000000000000000000000000000,
|
|
1000100010001000,
|
|
1000100100001000,
|
|
1000000010001000,
|
|
2000101010002000,
|
|
9000000000000000,
|
|
8000000000000000,
|
|
1000000010101000,
|
|
1000000010102000,
|
|
1000000010101000,
|
|
1000000010102000,
|
|
1000200010002000,
|
|
1000200010002000,
|
|
7000000000000000,
|
|
0000000080003000,
|
|
1000100010101000,
|
|
1000000010102000,
|
|
1000100010101000,
|
|
1000000010102000,
|
|
1000100010002000,
|
|
1000100010002000,
|
|
5000000000000000000000000000000000000000000000000000000000000000
|
|
0000000000000000000000000000000000000000000000000000000000000000
|
|
0000000000000000000000000000000000000000000000000000000000000000
|
|
0000000000000000000000000000000800000000000000000000000000000000,
|
|
7000000000008000,
|
|
#GOGOSTART
|
|
1000200020002000,
|
|
1000100000000000,
|
|
1010100010002000,
|
|
1000100000000000,
|
|
1000200020002000,
|
|
3000300300000000,
|
|
1000100050000080,
|
|
0000101010002000,//43
|
|
9000000000000000,
|
|
8000000000000000,
|
|
#GOGOEND
|
|
1010100300000000,
|
|
1010100300000000,
|
|
1000100010101010,
|
|
1000000000000000,
|
|
1010100300000000,
|
|
1010100300000000,
|
|
1000100010101010,
|
|
50000000000000000000000000000000
|
|
00000000000000000000000000000008
|
|
00000000000000000000000000000000
|
|
00000000000000000000000000000000,
|
|
1000100010001000,
|
|
1000100100001000,
|
|
1000000030003000,
|
|
2000101010002000,
|
|
9000000000000000,
|
|
0000000080000000,
|
|
0000000000000000,
|
|
#END
|
|
|
|
COURSE:0
|
|
LEVEL:3
|
|
SCOREINIT:950
|
|
SCOREDIFF:540
|
|
BALLOON:7,9,13,7,9,13
|
|
|
|
#START
|
|
3000000000000000,
|
|
5000000800000000,
|
|
3000000000000000,
|
|
0700000000000080,
|
|
4000000000000000,
|
|
1000000300000000,
|
|
1000000300000000,
|
|
1000000010001000,
|
|
1000000000000000,
|
|
1000000300000000,
|
|
1000000300000000,
|
|
1000000020002000,
|
|
50000000000000000000000000000000
|
|
00000000000000000000000000000008
|
|
00000000000000000000000000000000
|
|
00000000000000000000000000000000,
|
|
1000100010001000,
|
|
50000000000000000000000000000000
|
|
00000000000000000000000000000008
|
|
00000000000000000000000000000000
|
|
00000000000000000000000000000000,
|
|
1000000030003000,
|
|
0000100010001000,
|
|
9000000000000000,
|
|
8000000000000000,
|
|
1000000010000000,
|
|
1000000000002000,
|
|
1000000010000000,
|
|
1000000000002000,
|
|
1000000020000000,
|
|
1000000020000000,
|
|
7000000000000000,
|
|
0000000080003000,
|
|
1000000010000000,
|
|
1000000000002000,
|
|
1000000010000000,
|
|
1000000000002000,
|
|
1000000020000000,
|
|
1000000020000000,
|
|
5000000000000000000000000000000000000000000000000000000000000000
|
|
0000000000000000000000000000000000000000000000000000000000000000
|
|
0000000000000000000000000000000000000000000000000000000000000000
|
|
0000000000000000000000000000000800000000000000000000000000000000,
|
|
7000000000008000,
|
|
#GOGOSTART
|
|
1000100010001000,
|
|
1000100000000000,
|
|
1000000020000000,
|
|
1000100000000000,
|
|
1000100010001000,
|
|
1000100000000000,
|
|
1000100050000080,
|
|
0000100010001000,
|
|
9000000000000000,
|
|
8000000000000000,
|
|
#GOGOEND
|
|
1000000300000000,
|
|
1000000300000000,
|
|
1000000010001000,
|
|
1000000000000000,
|
|
1000000300000000,
|
|
1000000300000000,
|
|
1000000020002000,
|
|
50000000000000000000000000000000
|
|
00000000000000000000000000000008
|
|
00000000000000000000000000000000
|
|
00000000000000000000000000000000,
|
|
1000000010000000,
|
|
50000000000000000000000000000000
|
|
00000000000000000000000000000008
|
|
00000000000000000000000000000000
|
|
00000000000000000000000000000000,
|
|
1000000030003000,
|
|
0000300030003000,
|
|
9000000000000000,
|
|
0000000080000000,
|
|
0000000000000000,
|
|
#END |