Files
ESE-ja-fix/02 Anime/Ryuusei/Ryuusei.tja
T
2023-06-15 19:05:10 -05:00

311 lines
4.1 KiB
Plaintext
Raw Blame History

This file contains ambiguous Unicode characters
This file contains Unicode characters that might be confused with other characters. If you think that this is intentional, you can safely ignore this warning. Use the Escape button to reveal them.
//TJADB Project
TITLE:Ryuusei
TITLEJA:流星
SUBTITLE:--Eir Aoi/Sword Art Online Alternative: Gun Gale Online
SUBTITLEJA:「ソードアート・オンライン オルタナティブ ガンゲイル・オンライン」より
BPM:143
WAVE:Ryuusei.ogg
OFFSET:-1.867
DEMOSTART:55.127
COURSE:Oni
LEVEL:8
BALLOON:15,15,15
SCOREINIT:760
SCOREDIFF:205
#START
#MEASURE 1/4
1122,
#GOGOSTART
#MEASURE 4/4
1002102010221011,
1002112010221022,
500000000008000000200000500000000008000000100100,
7000000000008011,
1002102010221011,
1002112010221022,
500000000008000000200000500000000008000000100100,
1021021021011000,
#GOGOEND
2002002000000020,
2002002000000020,
1001001000000010,
2002002000000000,
2002022000000020,
2022002000000022,
1001001000001050,
000000000000000000000000000008000000000000000000,
1002102010221020,
1002112010221000,
1002102010221020,
1002112010221120,
1002102010221020,
1002112010221020,
500000000000000000000000000000000008000000200000,
7008,
1022201011020010,
1202201012210210,
1022201011020010,
1202201012210210,
1011201020112011,
1011201022112011,
2201112201112201,
1022,
#GOGOSTART
1010202211102011,
1010202210112020,
32232260,
000000000008000000000000100100100000100100200000,
1010202211102011,
1010202211102010,
1112207000000000,
0000800011112222,
1010202211102011,
1010202210112020,
32232260,
000000000008000000000000100100100000100100200000,
1010221120304030,
03433434,
1010202210102222,
1022021030003000,
1010221120304030,
03433434,
#GOGOEND
500000000008000000200200500000000000000000000000,
000000000000000000000000000000000000000000000008,
#END
COURSE:Hard
LEVEL:5
BALLOON:11,11,24,16,17
SCOREINIT:960
SCOREDIFF:280
#START
#BARLINEOFF
#MEASURE 1/4
,
#BARLINEON
#MEASURE 4/4
#GOGOSTART
1000100010111000,
1000100010111000,
500000000000000000000000000000000008000000000000,
7008,
1000200010111000,
1000200010111000,
500000000000000000000000000000000008000000000000,
7008,//9
#GOGOEND
1,
1,
1,
1,
2,
2,
2005,
000000000000000000000000000008000000000000000000,
10101012,
1000100010111000,
10101012,
1000100010111010,
10101012,
1000100010111000,
7,
0008,
1011101010000000,
10112000,
1011101010000000,
10112000,
1011101010001000,
10112020,
30030030,
4011,//33
#GOGOSTART
10201120,
1110200011102000,
30030060,
000000000008000000000000100000000000100000000000,
10201120,
1110200011102000,
7,
0833,
10201120,
1110200011102000,
30030060,
000000000008000000000000100000000000100000000000,
10110404,
03030303,
7,
0833,
10110404,
03030304,//51
#GOGOEND
5,
000000000000000000000000000000000000000000000008,
,
#END
COURSE:Normal
LEVEL:3
BALLOON:17,17,11,12
#START
#BARLINEOFF
#MEASURE 1/4
,//1
#BARLINEON
#MEASURE 4/4
#GOGOSTART
1110,
1110,
500000000000000000000000000000000008000000000000,
,
1110,
1110,
7,
0008,//9
#GOGOEND
1,
1,
1,
1,
2,
2,
2005,
000000000000000000000000000008000000000000000000,
1101,
1102,
1101,
1102,
1101,
1102,
7,
0008,
1110,
1120,
1110,
1120,
1110,
1122,
30030030,
,//33
#GOGOSTART
1110,
11101000,
30030060,
000000000008000000000000000000000000000000000000,
1110,
11101000,
7,
0800,
1120,
11102000,
30030060,
000000000008000000000000000000000000000000000000,
10110404,
03030303,
7,
0800,
10110404,
03030303,//51
#GOGOEND
5,
000000000000000000000000000000000000000000000008,
,
#END
COURSE:Easy
LEVEL:2
BALLOON:13,13,9,10
#START
#BARLINEOFF
#MEASURE 1/4
,//1
#BARLINEON
#MEASURE 4/4
#GOGOSTART
11,
11,
500000000000000000000000000000000008000000000000,
,
11,
11,
7,
0008,//9
#GOGOEND
1,
1,
1,
1,
2,
2,
2005,
000000000000000000000000000008000000000000000000,
1100,
1100,
1100,
1100,
1100,
1100,
7,
0008,
1110,
11,
1110,
11,
1110,
1110,
30030030,
,//33
#GOGOSTART
11,
1110,
30030060,
000000000008000000000000000000000000000000000000,
22,
2220,
7,
0800,
11,
1110,
30030060,
000000000008000000000000000000000000000000000000,
10000303,
,
7,
0800,
10000303,
,//51
#GOGOEND
5,
000000000000000000000000000000000000000000000008,
,
#END